Warning! Use a VPN When Downloading Torrents!
Your IP Address is .   Location is
Your Internet Provider is tracking your torrent activity!  Hide your IP ADDRESS with a VPN!
We strongly recommend using ExpressVPN to anonymize your torrenting. 30 Day Money Back Guarantee!
Try it Now!
First Cams

Xvid/x264



Non-English

Site Friends
      ETTV

      Torrentz2

      Free Tutorials

      Free Courses Online

      Nulled Premium

      Aiosearch




The 100 S06E05 The Gospel of Josephine REPACK 1080p AMZN WEBRip x265 DDP 5.1 D0ct0rLew[SEV]


Download torrent:      
Info Hash:  18a4812081f8ae46337259537d7299566a545d1a
Category:  TV  > HEVC/x265
Torrent language:  English  
Seeds | Leech:  166 | 52
Complete:   938
Health:   
Total Size:  1.74 GB
Added By:        SEV
Date Added:  13-06-2019 01:40:pm | Last Edit:  14-06-2019 05:36:am

IMDB
The 100
The 100 Released 19 Mar 2014

Genre Drama, Mystery, Sci-Fi

Director N/A

Writer Jason Rothenberg

Actors Eliza Taylor, Bob Morley, Marie Avgeropoulos, Lindsey Morgan

Plot Set ninety-seven years after a nuclear war has destroyed civilization, when a spaceship housing humanity's lone survivors sends one hundred juvenile delinquents back to Earth, in hopes of possibly re-populating the planet.

Link https://www.imdb.com/title/tt2661044/?ref_=nv_sr_5?ref_=nv_sr_5

Last Updated 11-12-2019 18:29:38
7.7

Votes 186,136

Un système d'onglets en javascript
Description Trackers Files 1 Comments 0 Download




Reason for repack. There were some lines that would roll up the screen in a few places So changed the setting a little to get rid of them.I watch it and all but 1 is gone and that 1 is in the source.

Media Information

Unique ID                                : 177190332222630764211899651330795741708 (0x854D9DDDFA1631777EC001982CB5A20C)
Complete name                            : The 100 S06E05 The Gospel of Josephine REPACK 1080p AMZN WEBRip x265 DDP 5.1 D0ct0rLew[SEV].mkv
Format                                   : Matroska
Format version                           : Version 4
File size                                : 1.74 GiB
Duration                                 : 40 min 43 s
Overall bit rate                         : 6 102 kb/s
Movie name                               : The 100 06x05 (The Gospel of Josephine)
Encoded date                             : UTC 2019-06-12 00:32:21
Writing application                      : mkvmerge v29.0.0 ('Like It Or Not') 64-bit
Writing library                          : libebml v1.3.6 + libmatroska v1.4.9

Video
ID                                       : 3
Format                                   : HEVC
Format/Info                              : High Efficiency Video Coding
Format profile                           : Main [email protected]@Main
Codec ID                                 : V_MPEGH/ISO/HEVC
Duration                                 : 40 min 43 s
Bit rate                                 : 5 460 kb/s
Width                                    : 1 920 pixels
Height                                   : 1 080 pixels
Display aspect ratio                     : 16:9
Frame rate mode                          : Constant
Frame rate                               : 23.976 (24000/1001) FPS
Color space                              : YUV
Chroma subsampling                       : 4:2:0
Bit depth                                : 10 bits
Bits/(Pixel*Frame)                       : 0.110
Stream size                              : 1.55 GiB (89%)
Writing library                          : x265 3.0_Au+14-c7e5878bdd31:[Windows][MSVC 1920][64 bit] 10bit
Encoding settings                        : cpuid=1111039 / frame-threads=3 / numa-pools=8 / wpp / no-pmode / no-pme / no-psnr / no-ssim / log-level=2 / input-csp=1 / input-res=1920x1080 / interlace=0 / total-frames=58575 / level-idc=0 / high-tier=1 / uhd-bd=0 / ref=5 / no-allow-non-conformance / no-repeat-headers / annexb / no-aud / no-hrd / info / hash=0 / no-temporal-layers / open-gop / min-keyint=23 / keyint=250 / gop-lookahead=0 / bframes=8 / b-adapt=2 / b-pyramid / bframe-bias=0 / rc-lookahead=90 / lookahead-slices=0 / scenecut=40 / radl=0 / no-splice / no-intra-refresh / ctu=64 / min-cu-size=8 / rect / amp / max-tu-size=32 / tu-inter-depth=3 / tu-intra-depth=3 / limit-tu=4 / rdoq-level=2 / dynamic-rd=0.00 / no-ssim-rd / signhide / no-tskip / nr-intra=0 / nr-inter=0 / no-constrained-intra / strong-intra-smoothing / max-merge=4 / limit-refs=1 / limit-modes / me=3 / subme=7 / merange=92 / temporal-mvp / weightp / weightb / no-analyze-src-pics / deblock=0:0 / sao / no-sao-non-deblock / rd=6 / no-early-skip / rskip / no-fast-intra / no-tskip-fast / no-cu-lossless / b-intra / no-splitrd-skip / rdpenalty=0 / psy-rd=1.10 / psy-rdoq=1.00 / no-rd-refine / no-lossless / cbqpoffs=0 / crqpoffs=0 / rc=crf / crf=20.5 / qcomp=0.60 / qpstep=4 / stats-write=0 / stats-read=0 / ipratio=1.40 / pbratio=1.30 / aq-mode=3 / aq-strength=1.00 / cutree / zone-count=0 / no-strict-cbr / qg-size=32 / no-rc-grain / qpmax=69 / qpmin=0 / no-const-vbv / sar=0 / overscan=0 / videoformat=5 / range=0 / colorprim=2 / transfer=2 / colormatrix=2 / chromaloc=0 / display-window=0 / max-cll=0,0 / min-luma=0 / max-luma=1023 / log2-max-poc-lsb=8 / vui-timing-info / vui-hrd-info / slices=1 / no-opt-qp-pps / no-opt-ref-list-length-pps / no-multi-pass-opt-rps / scenecut-bias=0.05 / no-opt-cu-delta-qp / no-aq-motion / no-hdr / no-hdr-opt / no-dhdr10-opt / no-idr-recovery-sei / analysis-reuse-level=5 / scale-factor=0 / refine-intra=0 / refine-inter=0 / refine-mv=0 / refine-ctu-distortion=0 / no-limit-sao / ctu-info=0 / no-lowpass-dct / refine-analysis-type=0 / copy-pic=1 / max-ausize-factor=1.0 / no-dynamic-refine / no-single-sei / no-hevc-aq / no-svt / qp-adaptation-range=1.00
Default                                  : Yes
Forced                                   : No

Audio
ID                                       : 2
Format                                   : E-AC-3
Format/Info                              : Enhanced AC-3
Commercial name                          : Dolby Digital Plus
Codec ID                                 : A_EAC3
Duration                                 : 40 min 43 s
Bit rate mode                            : Constant
Bit rate                                 : 640 kb/s
Channel(s)                               : 6 channels
Channel layout                           : L R C LFE Ls Rs
Sampling rate                            : 48.0 kHz
Frame rate                               : 31.250 FPS (1536 SPF)
Compression mode                         : Lossy
Stream size                              : 186 MiB (10%)
Language                                 : English
Service kind                             : Complete Main
Default                                  : Yes
Forced                                   : No

Text
ID                                       : 1
Format                                   : UTF-8
Codec ID                                 : S_TEXT/UTF8
Codec ID/Info                            : UTF-8 Plain Text
Duration                                 : 40 min 34 s
Bit rate                                 : 74 b/s
Count of elements                        : 657
Stream size                              : 22.2 KiB (0%)
Language                                 : English
Default                                  : Yes
Forced                                   : No

We have no issue with individuals posting or re-uploading our torrents on a platform we aren't on. However, if this is something you'd like to do, please do so in a 'as-is' format. We ask that you do not create a new torrent, include all descriptions you see above including the SEV logo, tags, notes and screenshots.
If you'd like to become a permanent poster on a website we don't post to, feel free to get in contact with a Sublime Encoded Video member.

We are recruiting/training new members for SEV & seedbox providers as well as people to help out with subtitles.
As you already know, we deliver quality, so you know the standard.
If you're interested, feel free to contact any of the team members.


Similar Torrents
Type Name Size Added S L
Audio VA - Songs From The 100 Best Albums Of All Time [3...
452.19 MB 2019-04-23 13:55:20 1928 760
Audio VA - The 100 Collection The 80s (2019) Mp3 320kbps...
923.34 MB 2019-04-11 00:51:19 1661 765
Video SDAM-011 together, this was just amazing Demon fro...
5.81 GB 2019-04-13 14:55:03 765 1124
HD Video Tokyo Hot hamesamurai0023 Tokyo hot popular was th...
2.98 GB 2019-12-02 06:58:30 705 182
HEVC/x265 The 100 S06E03 The Children of Gabriel 1080p AMZN...
1.77 GB 2019-05-16 11:06:59 640 222
HD Video HD KTKZ-042 SNS in humans, far more than her esti...
6.23 GB 2019-04-15 15:13:29 579 1049
Audio VA - Mastermix The 100 Collection The 80s (320) [D...
922.39 MB 2019-04-23 19:40:09 513 268
Video SDAM-011 team tag Demon from the time limit, escap...
5.81 GB 2019-07-08 09:59:44 433 969
HD Video FC2 PPV 1217843 8. the 1000 yen value lowered High...
813.79 MB 2019-12-09 10:20:00 411 50
Video KTV by crazy KTV Princess undressing tourism p...
67.93 MB 2019-05-16 18:33:19 395 207




Trackers:
http://tracker3.itzmx.com:6961/announce

This Torrent also has backup trackers
URLSeedersLeechersCompleted
http://tracker3.itzmx.com:6961/announce000
http://open.acgnxtracker.com:80/announce000
http://explodie.org:6969/announce000

The 100 S06E05 The Gospel of Josephine REPACK 1080p AMZN WEBRip x265 DDP 5.1 D0ct0rLew[SEV]
Files
The 100 S06E05 The Gospel of Josephine REPACK 1080p AMZN WEBRip x265 DDP 5.1 D0ct0rLew[SEV].mkv (1.74 GB)


Comments:
No comments still posted
Powered by TT | Page Generated In 0.765385 secs.
| RSS Feed | Feed Info