Xvid/x264



Non-English

Site Friends
      ETTV

      Torrentz2

      Free Courses Online

      OneHack




I guardiani dei mondi-Chernovik (2018) ITA-RUS Ac3 5.1 BDRip 1080p H264 [ArMor]


Download torrent:      
Info Hash:  86AF5D622584549B1816ED94678CC2F0CB4B8193
Category:  Movies > HD
Torrent language:  Italian  
Seeds | Leech:  28 | 2
Complete:   509
Health:   
Total Size:  3.35 GB
Added By:        ArMor
Date Added:  01-06-2020 02:23:pm | Last Edit:  09-07-2020 12:28:am
Un système d'onglets en javascript
Description Trackers Files 4 Comments 1 Download Update Seeds & Leechers Stat













General
Unique ID                                : 305497420778385247424734880477273611598 (0xE5D4A9BE5DE2C0EDD1F094A0C3435D4E)
Complete name                            : I guardiani dei mondi-Chernovik (2018) ITA-RUS Ac3 5.1 BDRip 1080p H264 [ArMor].mkv
Format                                   : Matroska
Format version                           : Version 4
File size                                : 3.35 GiB
Duration                                 : 1 h 50 min
Overall bit rate                         : 4 323 kb/s
Movie name                               : CineBlog01HD
Encoded date                             : UTC 2020-05-30 13:02:12
Writing application                      : HandBrake 1.3.2 2020050300
Writing library                          : Lavf58.29.100
ErrorDetectionType                       : Per level 1

Video
ID                                       : 1
Format                                   : AVC
Format/Info                              : Advanced Video Codec
Format profile                           : [email protected]
Format settings                          : CABAC / 4 Ref Frames
Format settings, CABAC                   : Yes
Format settings, Reference frames        : 4 frames
Codec ID                                 : V_MPEG4/ISO/AVC
Duration                                 : 1 h 50 min
Bit rate                                 : 3 500 kb/s
Width                                    : 1 920 pixels
Height                                   : 800 pixels
Display aspect ratio                     : 2.40:1
Frame rate mode                          : Constant
Frame rate                               : 25.000 FPS
Color space                              : YUV
Chroma subsampling                       : 4:2:0
Bit depth                                : 8 bits
Scan type                                : Progressive
Bits/(Pixel*Frame)                       : 0.091
Stream size                              : 2.59 GiB (77%)
Writing library                          : x264 core 157 r2935 545de2f
Encoding settings                        : cabac=1 / ref=2 / deblock=1:0:0 / analyse=0x1:0x111 / me=hex / subme=6 / psy=1 / psy_rd=1.00:0.00 / mixed_ref=1 / me_range=16 / chroma_me=1 / trellis=1 / 8x8dct=0 / cqm=0 / deadzone=21,11 / fast_pskip=1 / chroma_qp_offset=-2 / threads=18 / lookahead_threads=3 / sliced_threads=0 / nr=0 / decimate=1 / interlaced=0 / bluray_compat=0 / constrained_intra=0 / bframes=3 / b_pyramid=2 / b_adapt=1 / b_bias=0 / direct=1 / weightb=1 / open_gop=0 / weightp=1 / keyint=250 / keyint_min=25 / scenecut=40 / intra_refresh=0 / rc_lookahead=30 / rc=abr / mbtree=1 / bitrate=3500 / ratetol=1.0 / qcomp=0.60 / qpmin=0 / qpmax=69 / qpstep=4 / vbv_maxrate=50000 / vbv_bufsize=62500 / nal_hrd=none / filler=0 / ip_ratio=1.40 / aq=1:1.00
Default                                  : Yes
Forced                                   : No
Color range                              : Limited
Color primaries                          : BT.709
Transfer characteristics                 : BT.709
Matrix coefficients                      : BT.709

Audio #1
ID                                       : 2
Format                                   : AC-3
Format/Info                              : Audio Coding 3
Commercial name                          : Dolby Digital
Codec ID                                 : A_AC3
Duration                                 : 1 h 50 min
Bit rate mode                            : Constant
Bit rate                                 : 448 kb/s
Channel(s)                               : 6 channels
Channel layout                           : L R C LFE Ls Rs
Sampling rate                            : 48.0 kHz
Frame rate                               : 31.250 FPS (1536 SPF)
Compression mode                         : Lossy
Stream size                              : 355 MiB (10%)
Title                                    : DTS
Language                                 : Italian
Service kind                             : Complete Main
Default                                  : Yes
Forced                                   : No

Audio #2
ID                                       : 3
Format                                   : AC-3
Format/Info                              : Audio Coding 3
Commercial name                          : Dolby Digital
Codec ID                                 : A_AC3
Duration                                 : 1 h 50 min
Bit rate mode                            : Constant
Bit rate                                 : 448 kb/s
Channel(s)                               : 6 channels
Channel layout                           : L R C LFE Ls Rs
Sampling rate                            : 48.0 kHz
Frame rate                               : 31.250 FPS (1536 SPF)
Compression mode                         : Lossy
Stream size                              : 355 MiB (10%)
Title                                    : DTS
Language                                 : Russian
Service kind                             : Complete Main
Default                                  : No
Forced                                   : No



Similar Torrents
Type Name Size Added S L
HEVC/x265 The Adjustment Bureau - I Guardiani Del Destino AC...
3.95 GB 2019-05-09 23:34:30 446 290
HD Chernovik (2019) I Guardiani dei mondi - BluRay 10...
2.66 GB 2020-05-31 17:43:05 22 0
Divx/Xvid I guardiani dei mondi (2018) ITA-AC3 BDRip - [email protected]
1.74 GB 2020-05-30 20:18:02 2 2




Trackers:
udp://tracker.coppersurfer.tk:6969/announce

I guardiani dei mondi-Chernovik (2018) ITA-RUS Ac3 5.1 BDRip 1080p H264 [ArMor]
Files
86yfvuoh.jpg (125.60 kB)
I guardiani dei mondi-Chernovik (2018) ITA-RUS Ac3 5.1 BDRip 1080p H264 [ArMor].mkv (3.35 GB)
I.guardiani.dei.mondi.2018.ITA-RUS.Bluray.1080p_ita.srt (81.70 kB)
I.guardiani.dei.mondi.2018.ITA-RUS.Bluray.1080p_ita_forced.srt (87.00 B)


Comments:

<< Previous      Next >>
1 - 1

[Report] Posted: 03-06-2020 at 18:08:36
nanchy



tx

1 - 1
<< Previous      Next >>


Powered by TT | Page Generated In 3.991473 secs.
| RSS Feed | Feed Info