Xvid/x264



Non-English

Site Friends
      ETTV

      Torrentz2

      Free Courses Online

      OneHack




Il mistero di Henri Pick-Le mystere Henri Pick (2019) ITA-FRE Ac3 5.1 BDRip 1080p H264 [ArMor]


Download torrent:      
Info Hash:  25226873EB3189427729CA7E19EE48417536DEA1
Category:  Movies > HD
Torrent language:  Italian  
Seeds | Leech:  41 | 1
Complete:   1,232
Health:   
Total Size:  3.06 GB
Added By:        ArMor
Date Added:  01-06-2020 01:35:pm | Last Edit:  08-07-2020 07:03:am
Un système d'onglets en javascript
Description Trackers Files 4 Comments 1 Download Update Seeds & Leechers Stat













General
Unique ID                                : 75991857862400320757697378780979609056 (0x392B7FDC862EE8D9FB8A89D9B4E33DE0)
Complete name                            : Il mistero di Henri Pick-Le mystere Henri Pick (2019) ITA-FRE Ac3 5.1 BDRip 1080p H264 [ArMor].mkv
Format                                   : Matroska
Format version                           : Version 4
File size                                : 3.06 GiB
Duration                                 : 1 h 41 min
Overall bit rate                         : 4 321 kb/s
Movie name                               : CineBlog01HD
Encoded date                             : UTC 2020-05-30 13:56:17
Writing application                      : HandBrake 1.3.2 2020050300
Writing library                          : Lavf58.29.100
ErrorDetectionType                       : Per level 1

Video
ID                                       : 1
Format                                   : AVC
Format/Info                              : Advanced Video Codec
Format profile                           : [email protected]
Format settings                          : CABAC / 4 Ref Frames
Format settings, CABAC                   : Yes
Format settings, Reference frames        : 4 frames
Codec ID                                 : V_MPEG4/ISO/AVC
Duration                                 : 1 h 40 min
Bit rate                                 : 3 500 kb/s
Width                                    : 1 920 pixels
Height                                   : 798 pixels
Display aspect ratio                     : 2.40:1
Frame rate mode                          : Constant
Frame rate                               : 24.000 FPS
Color space                              : YUV
Chroma subsampling                       : 4:2:0
Bit depth                                : 8 bits
Scan type                                : Progressive
Bits/(Pixel*Frame)                       : 0.095
Stream size                              : 2.35 GiB (77%)
Writing library                          : x264 core 157 r2935 545de2f
Encoding settings                        : cabac=1 / ref=2 / deblock=1:0:0 / analyse=0x1:0x111 / me=hex / subme=6 / psy=1 / psy_rd=1.00:0.00 / mixed_ref=1 / me_range=16 / chroma_me=1 / trellis=1 / 8x8dct=0 / cqm=0 / deadzone=21,11 / fast_pskip=1 / chroma_qp_offset=-2 / threads=18 / lookahead_threads=3 / sliced_threads=0 / nr=0 / decimate=1 / interlaced=0 / bluray_compat=0 / constrained_intra=0 / bframes=3 / b_pyramid=2 / b_adapt=1 / b_bias=0 / direct=1 / weightb=1 / open_gop=0 / weightp=1 / keyint=240 / keyint_min=24 / scenecut=40 / intra_refresh=0 / rc_lookahead=30 / rc=abr / mbtree=1 / bitrate=3500 / ratetol=1.0 / qcomp=0.60 / qpmin=0 / qpmax=69 / qpstep=4 / vbv_maxrate=50000 / vbv_bufsize=62500 / nal_hrd=none / filler=0 / ip_ratio=1.40 / aq=1:1.00
Default                                  : Yes
Forced                                   : No
Color range                              : Limited
Color primaries                          : BT.709
Transfer characteristics                 : BT.709
Matrix coefficients                      : BT.709

Audio #1
ID                                       : 2
Format                                   : AC-3
Format/Info                              : Audio Coding 3
Commercial name                          : Dolby Digital
Codec ID                                 : A_AC3
Duration                                 : 1 h 41 min
Bit rate mode                            : Constant
Bit rate                                 : 448 kb/s
Channel(s)                               : 6 channels
Channel layout                           : L R C LFE Ls Rs
Sampling rate                            : 48.0 kHz
Frame rate                               : 31.250 FPS (1536 SPF)
Compression mode                         : Lossy
Stream size                              : 325 MiB (10%)
Title                                    : DVD
Language                                 : Italian
Service kind                             : Complete Main
Default                                  : Yes
Forced                                   : No

Audio #2
ID                                       : 3
Format                                   : AC-3
Format/Info                              : Audio Coding 3
Commercial name                          : Dolby Digital
Codec ID                                 : A_AC3
Duration                                 : 1 h 40 min
Bit rate mode                            : Constant
Bit rate                                 : 448 kb/s
Channel(s)                               : 6 channels
Channel layout                           : L R C LFE Ls Rs
Sampling rate                            : 48.0 kHz
Frame rate                               : 31.250 FPS (1536 SPF)
Compression mode                         : Lossy
Stream size                              : 323 MiB (10%)
Title                                    : DTS
Language                                 : French
Service kind                             : Complete Main
Default                                  : No
Forced                                   : No



Similar Torrents
Type Name Size Added S L
HD The Mercy-Il Mistero Di Donald C (2018).1080p.H264...
2.57 GB 2018-09-21 18:35:50 732 396
HD The Mercy - Il mistero di Donald C. (2018).720p.H2...
1.96 GB 2018-10-11 17:18:09 364 92
Divx/Xvid The.Vanishing.Il.Mistero.Del.Faro.2018.iTALiAN.AC3...
1.32 GB 2019-06-29 15:53:06 309 180
HD Il mistero di Aylwood House-The Watcher in the Woo...
2.15 GB 2019-08-19 23:41:01 167 33
h.264/x264 Il mistero di Bellavista (1985).SD.H264.ITA.Ac3-2....
2.04 GB 2019-07-25 23:44:49 136 27
HEVC/x265 National Treasure Book of Secrets - Il mistero del...
2.96 GB 2020-02-22 00:48:24 133 142
HEVC/x265 National Treasure - Il mistero dei Templari (2004)...
3.07 GB 2020-02-22 00:48:12 126 120
h.264/x264 Il.mistero.del.V3-The.flying.missile.(1950).ITA-EN...
1.17 GB 2019-10-13 18:31:14 121 33
h.264/x264 Il mistero di bellavista (1985).SD.H264.italian.Ac...
1.07 GB 2019-02-13 20:58:17 69 55
h.264/x264 The Mercy - Il mistero di Donald C. (2018).SD.H264...
1.58 GB 2018-10-11 18:37:21 38 9




Trackers:
udp://tracker.coppersurfer.tk:6969/announce

Il mistero di Henri Pick-Le mystere Henri Pick (2019) ITA-FRE Ac3 5.1 BDRip 1080p H264 [ArMor]
Files
f7t9utodfiyo.jpg (100.50 kB)
Il mistero di Henri Pick-Le mystere Henri Pick (2019) ITA-FRE Ac3 5.1 BDRip 1080p H264 [ArMor].mkv (3.06 GB)
Il.mistero.Henri.Pick.2019.ITA-FRE.Bluray.1080p_ita.srt (121.56 kB)
Il.mistero.Henri.Pick.2019.ITA-FRE.Bluray.1080p_ita_forced.srt (541.00 B)


Comments:

<< Previous      Next >>
1 - 1

[Report] Posted: 01-06-2020 at 15:35:55
nanchy



thank u!

1 - 1
<< Previous      Next >>


Powered by TT | Page Generated In 5.117092 secs.
| RSS Feed | Feed Info