Xvid/x264



Non-English

Site Friends
      ETTV

      Torrentz2

      Free Courses Online

      OneHack




Childhoods End (2015) S01 (1080p BDrip x265 10bit EAC3 5.1 - Ainz)[TAoE]


Download torrent:      
Info Hash:  A76D224E1A45BAC1F3221B95DC92AEE679529982
Category:  TV > HEVC/x265
Torrent language:  English  
Seeds | Leech:  4 | 0
Complete:   21
Health:   
Total Size:  9.38 GB
Added By:        Goki Site FriendSuperman
Date Added:  01-06-2020 12:49:pm | Last Edit:  10-07-2020 08:46:am
Un système d'onglets en javascript
Description Trackers Files 3 Comments 0 Download Update Seeds & Leechers Stat





Childhood's End (2015) IMDB

















Synopsis

The people tasked with creating a sixth branch of the armed services: The Space Force

Media Information
General
Unique ID                                : 69475124308886179529378978484724157669 (0x34446C173E0E36A695FD018B6D03CCE5)
Complete name                            :Childhood's End (2015) S01E01 The Overlords (1080p BDrip x265 10bit EAC3 5.1 - Ainz)[TAoE].mkv
Format                                   : Matroska
Format version                           : Version 4
File size                                : 3.57 GiB
Duration                                 : 1 h 21 min
Overall bit rate                         : 6 243 kb/s
Writing application                      : Lavf58.29.100
Writing library                          : Lavf58.29.100
ErrorDetectionType                       : Per level 1

Video
ID                                       : 1
Format                                   : HEVC
Format/Info                              : High Efficiency Video Coding
Format profile                           : Main [email protected]@Main
Codec ID                                 : V_MPEGH/ISO/HEVC
Duration                                 : 1 h 21 min
Bit rate                                 : 5 751 kb/s
Width                                    : 1 920 pixels
Height                                   : 1 080 pixels
Display aspect ratio                     : 16:9
Frame rate mode                          : Variable
Frame rate                               : 23.976 (23976/1000) FPS
Original frame rate                      : 23.976 (24000/1001) FPS
Color space                              : YUV
Chroma subsampling                       : 4:2:0
Bit depth                                : 10 bits
Bits/(Pixel*Frame)                       : 0.116
Stream size                              : 3.29 GiB (92%)
Title                                    : Encoded by Ainz for TAoE using Shinguru V1.2
Writing library                          : x265 3.2+35-acc5d16999e2:[Windows][GCC 9.2.1][64 bit] 10bit
Encoding settings                        : cpuid=1111039 / frame-threads=4 / numa-pools=24 / wpp / no-pmode / no-pme / no-psnr / no-ssim / log-level=2 / input-csp=1 / input-res=1920x1080 / interlace=0 / total-frames=0 / level-idc=0 / high-tier=1 / uhd-bd=0 / ref=4 / no-allow-non-conformance / no-repeat-headers / annexb / no-aud / no-hrd / info / hash=0 / no-temporal-layers / open-gop / min-keyint=23 / keyint=250 / gop-lookahead=0 / bframes=8 / b-adapt=2 / b-pyramid / bframe-bias=0 / rc-lookahead=80 / lookahead-slices=4 / scenecut=40 / hist-scenecut=0 / radl=0 / no-splice / no-intra-refresh / ctu=64 / min-cu-size=8 / no-rect / no-amp / max-tu-size=32 / tu-inter-depth=1 / tu-intra-depth=1 / limit-tu=0 / rdoq-level=2 / dynamic-rd=0.00 / no-ssim-rd / signhide / no-tskip / nr-intra=0 / nr-inter=0 / no-constrained-intra / no-strong-intra-smoothing / max-merge=3 / limit-refs=3 / limit-modes / me=3 / subme=5 / merange=57 / temporal-mvp / no-frame-dup / no-hme / weightp / no-weightb / no-analyze-src-pics / deblock=0:0 / sao / no-sao-non-deblock / rd=4 / selective-sao=4 / no-early-skip / rskip / no-fast-intra / no-tskip-fast / no-cu-lossless / no-b-intra / no-splitrd-skip / rdpenalty=0 / psy-rd=1.30 / psy-rdoq=2.00 / no-rd-refine / no-lossless / cbqpoffs=0 / crqpoffs=0 / rc=crf / crf=19.0 / qcomp=0.60 / qpstep=4 / stats-write=0 / stats-read=0 / ipratio=1.40 / pbratio=1.30 / aq-mode=4 / aq-strength=1.10 / cutree / zone-count=0 / no-strict-cbr / qg-size=32 / no-rc-grain / qpmax=69 / qpmin=0 / no-const-vbv / sar=1 / overscan=0 / videoformat=5 / range=0 / colorprim=2 / transfer=2 / colormatrix=2 / chromaloc=0 / display-window=0 / cll=0,0 / min-luma=0 / max-luma=1023 / log2-max-poc-lsb=8 / vui-timing-info / vui-hrd-info / slices=1 / no-opt-qp-pps / no-opt-ref-list-length-pps / no-multi-pass-opt-rps / scenecut-bias=0.05 / hist-threshold=0.01 / no-opt-cu-delta-qp / no-aq-motion / no-hdr10 / no-hdr10-opt / no-dhdr10-opt / no-idr-recovery-sei / analysis-reuse-level=0 / analysis-save-reuse-level=0 / analysis-load-reuse-level=0 / scale-factor=0 / refine-intra=0 / refine-inter=0 / refine-mv=1 / refine-ctu-distortion=0 / no-limit-sao / ctu-info=0 / no-lowpass-dct / refine-analysis-type=0 / copy-pic=1 / max-ausize-factor=1.0 / no-dynamic-refine / no-single-sei / no-hevc-aq / no-svt / no-field / qp-adaptation-range=1.00 / no-scenecut-aware-qpconformance-window-offsets / right=0 / bottom=0
Language                                 : English
Default                                  : Yes
Forced                                   : No
Color range                              : Limited

Audio
ID                                       : 2
Format                                   : E-AC-3
Format/Info                              : Enhanced AC-3
Commercial name                          : Dolby Digital Plus
Codec ID                                 : A_EAC3
Duration                                 : 1 h 21 min
Bit rate mode                            : Constant
Bit rate                                 : 448 kb/s
Channel(s)                               : 6 channels
Channel layout                           : L R C LFE Ls Rs
Sampling rate                            : 48.0 kHz
Frame rate                               : 31.250 FPS (1536 SPF)
Bit depth                                : 24 bits
Compression mode                         : Lossy
Stream size                              : 263 MiB (7%)
Writing library                          : Lavc58.54.100 eac3
Language                                 : English
Service kind                             : Complete Main
Default                                  : Yes
Forced                                   : No

Text
ID                                       : 3
Format                                   : PGS
Codec ID                                 : S_HDMV/PGS
Codec ID/Info                            : Picture based subtitle format used on BDs/HD-DVDs
Duration                                 : 1 h 20 min
Bit rate                                 : 40.7 kb/s
Count of elements                        : 2352
Stream size                              : 23.5 MiB (1%)
Title                                    : SDH
Language                                 : English
Default                                  : No
Forced                                   : No

Menu
00:00:00.000                             : :Chapter 1
00:10:37.011                             : :Chapter 2
00:21:16.150                             : :Chapter 3
00:27:39.366                             : :Chapter 4
00:33:48.944                             : :Chapter 5
00:42:50.777                             : :Chapter 6
00:49:27.631                             : :Chapter 7
00:55:25.322                             : :Chapter 8
01:00:47.853                             : :Chapter 9
01:08:36.279                             : :Chapter 10
01:17:17.174                             : :Chapter 11
01:21:23.504                             : :Chapter 12



Source Information

General
Unique ID                                : 99294523244204588415837240077095644298 (0x4AB36DF7D6ADFF0806D66EC7E99DAC8A)
Complete name                            :Childhoods.End.S01E01.Night.One.The.Overlords.1080p.BluRay.REMUX.AVC.DTS-HD.MA.5.1-EPSiLON.mkv
Format                                   : Matroska
Format version                           : Version 4
File size                                : 22.0 GiB
Duration                                 : 1 h 21 min
Overall bit rate mode                    : Variable
Overall bit rate                         : 38.5 Mb/s
Movie name                               : Childhood's End - Night One: The Overlords
Encoded date                             : UTC 2018-05-31 18:57:44
Writing application                      : mkvmerge v9.6.0 ('Slave To Your Mind') 64bit
Writing library                          : libebml v1.3.4 + libmatroska v1.4.5

Video
ID                                       : 1
Format                                   : AVC
Format/Info                              : Advanced Video Codec
Format profile                           : [email protected]
Format settings                          : CABAC / 4 Ref Frames
Format settings, CABAC                   : Yes
Format settings, Reference frames        : 4 frames
Codec ID                                 : V_MPEG4/ISO/AVC
Duration                                 : 1 h 21 min
Bit rate mode                            : Variable
Bit rate                                 : 34.9 Mb/s
Maximum bit rate                         : 37.0 Mb/s
Width                                    : 1 920 pixels
Height                                   : 1 080 pixels
Display aspect ratio                     : 16:9
Frame rate mode                          : Constant
Frame rate                               : 23.976 (24000/1001) FPS
Color space                              : YUV
Chroma subsampling                       : 4:2:0
Bit depth                                : 8 bits
Scan type                                : Progressive
Bits/(Pixel*Frame)                       : 0.702
Stream size                              : 20.0 GiB (91%)
Title                                    : MPEG-4 AVC Video / 34911 kbps / 1080p / 23.976 fps / 16:9 / High Profile 4.1
Language                                 : English
Default                                  : Yes
Forced                                   : No

Audio
ID                                       : 2
Format                                   : DTS XLL
Format/Info                              : Digital Theater Systems
Commercial name                          : DTS-HD Master Audio
Codec ID                                 : A_DTS
Duration                                 : 1 h 21 min
Bit rate mode                            : Variable
Bit rate                                 : 3 531 kb/s
Channel(s)                               : 6 channels
Channel layout                           : C L R Ls Rs LFE
Sampling rate                            : 48.0 kHz
Frame rate                               : 93.750 FPS (512 SPF)
Bit depth                                : 24 bits
Compression mode                         : Lossless
Stream size                              : 2.02 GiB (9%)
Title                                    : DTS-HD Master Audio / 5.1 / 48 kHz / 3531 kbps / 24-bit
Language                                 : English
Default                                  : Yes
Forced                                   : No

Text
ID                                       : 3
Format                                   : PGS
Codec ID                                 : S_HDMV/PGS
Codec ID/Info                            : Picture based subtitle format used on BDs/HD-DVDs
Duration                                 : 1 h 20 min
Bit rate                                 : 40.7 kb/s
Count of elements                        : 2352
Stream size                              : 23.5 MiB (0%)
Title                                    : SDH
Language                                 : English
Default                                  : No
Forced                                   : No

Menu
00:00:00.000                             : en:Chapter 1
00:10:37.011                             : en:Chapter 2
00:21:16.150                             : en:Chapter 3
00:27:39.366                             : en:Chapter 4
00:33:48.944                             : en:Chapter 5
00:42:50.777                             : en:Chapter 6
00:49:27.631                             : en:Chapter 7
00:55:25.322                             : en:Chapter 8
01:00:47.853                             : en:Chapter 9
01:08:36.279                             : en:Chapter 10
01:17:17.174                             : en:Chapter 11
01:21:23.504                             : en:Chapter 12




Source
1080p BluRay Remux EPSiLON


Hello everyone,
We are TAoE, a small team of passionate encoders who love encoding. We try our best to provide you with high quality releases.

Requests for movies and shows are welcome.
We have a form for encode requests which can be found here
Encode requests form
submit your request and it will be added to our encoding request list
You can view our encoding request list here
Encode requests list


When or if we encode it will depend on if we can obtain a good source to encode with and
if one of the TAoE encoders chooses to encode it. Unfortunately we are not able to encode everything,
new members are welcome as that helps us encode more content!

If you would like to join TAoE submit your request here!
TAoE member applications form




.........................................................................................................................................


Similar Torrents
Type Name Size Added S L
HD Video HD MIAA-106 for she was childhood friends with SE...
3.46 GB 2019-06-28 15:14:29 4058 5221
HD Video HD STARS-067 Koizumi, Hinata though SODstaryouth ...
5.00 GB 2019-04-12 17:29:13 4009 6670
Video 259LUXU-1110 classic TV 1098 sex of longing to emb...
893.95 MB 2019-05-04 16:52:07 3965 5087
HD Video HD MIDE-680 actually, its about the only game I p...
3.47 GB 2019-09-08 14:47:24 3844 5143
HD Video +++ [HD] STARS-198 the blue sky Hikari I visited a...
9.36 GB 2020-02-05 07:46:17 3715 6687
HD Video HD STARS-068 childhood and child making sex pract...
5.38 GB 2019-05-10 08:07:53 3609 8332
HD Video HD MIAA-152 reverse 3P Harlem Creampie childhood ...
4.92 GB 2019-09-08 14:43:49 2969 5669
HD Video HD MEYD-509 while their husbands are at home. I m...
3.51 GB 2019-07-08 09:25:01 2778 1931
Video +++ HND-776 dormitory×NTR report 1 year reunit...
1.80 GB 2020-01-31 02:21:03 2645 2141
HD Video HD BLK-421 childhood friend of sassy Gal and Infi...
3.50 GB 2019-09-13 18:20:20 2436 2838




Trackers:
udp://tracker.coppersurfer.tk:6969/announce

Childhoods End (2015) S01 (1080p BDrip x265 10bit EAC3 5.1 - Ainz)[TAoE]
Files
Childhood's End (2015) S01E01 The Overlords (1080p BDrip x265 10bit EAC3 5.1 - Ainz)[TAoE].mkv (3.57 GB)
Childhood's End (2015) S01E02 The Deceivers (1080p BDrip x265 10bit EAC3 5.1 - Ainz)[TAoE].mkv (3.04 GB)
Childhood's End (2015) S01E03 The Children (1080p BDrip x265 10bit EAC3 5.1 - Ainz)[TAoE].mkv (2.77 GB)


Comments:
No comments still posted

Powered by TT | Page Generated In 3.742124 secs.
| RSS Feed | Feed Info