Xvid/x264



Non-English

Site Friends
      ETTV

      Torrentz2

      Free Courses Online

      OneHack




Stargirl (2020) S01E03 Icicle (1080p DCU Webrip x265 10bit EAC3 5.1 - Goki)[TAoE].mkv


Download torrent:      
Info Hash:  684AED055E91B8243F15AEEB2974FD6EF9C89686
Category:  TV > HEVC/x265
Torrent language:  English  
Seeds | Leech:  26 | 15
Complete:   169
Health:   
Total Size:  986.95 MB
Added By:        Goki Site FriendSuperman
Date Added:  01-06-2020 09:11:am | Last Edit:  09-07-2020 03:53:am
Un système d'onglets en javascript
Description Trackers Files 1 Comments 1 Download Update Seeds & Leechers Stat





Stargirl (2020) IMDB










Media Information

General
Unique ID                                : 215166637001719739527007490880647425741 (0xA1DF96409DD97BF2435D096325C76ECD)
Complete name                            : Stargirl (2020) S01E03 Icicle (1080p DCU Webrip x265 10bit EAC3 5.1 - Goki)[TAoE].mkv
Format                                   : Matroska
Format version                           : Version 4
File size                                : 987 MiB
Duration                                 : 44 min 3 s
Overall bit rate                         : 3 132 kb/s
Movie name                               : Stargirl (2020) S01E03 Icicle (1080p DCU Webrip x265 10bit EAC3 5.1 - Goki)[TAoE].mkv
Writing application                      : Lavf58.29.100
Writing library                          : Lavf58.29.100
ErrorDetectionType                       : Per level 1

Video
ID                                       : 1
Format                                   : HEVC
Format/Info                              : High Efficiency Video Coding
Format profile                           : Main [email protected]@Main
Codec ID                                 : V_MPEGH/ISO/HEVC
Duration                                 : 44 min 3 s
Bit rate                                 : 2 488 kb/s
Width                                    : 1 920 pixels
Height                                   : 1 080 pixels
Display aspect ratio                     : 16:9
Frame rate mode                          : Constant
Frame rate                               : 23.976 (24000/1001) FPS
Color space                              : YUV
Chroma subsampling                       : 4:2:0
Bit depth                                : 10 bits
Bits/(Pixel*Frame)                       : 0.050
Stream size                              : 784 MiB (79%)
Title                                    : Encoded by Goki for TAoE using Shinguru V1.2
Writing library                          : x265 3.2+35-acc5d16999e2:[Windows][GCC 9.2.1][64 bit] 10bit
Encoding settings                        : cpuid=1111039 / frame-threads=4 / numa-pools=24 / wpp / no-pmode / no-pme / no-psnr / no-ssim / log-level=2 / input-csp=1 / input-res=1920x1080 / interlace=0 / total-frames=0 / level-idc=0 / high-tier=1 / uhd-bd=0 / ref=4 / no-allow-non-conformance / no-repeat-headers / annexb / no-aud / no-hrd / info / hash=0 / no-temporal-layers / open-gop / min-keyint=23 / keyint=250 / gop-lookahead=0 / bframes=8 / b-adapt=2 / b-pyramid / bframe-bias=0 / rc-lookahead=80 / lookahead-slices=4 / scenecut=40 / hist-scenecut=0 / radl=0 / no-splice / no-intra-refresh / ctu=64 / min-cu-size=8 / no-rect / no-amp / max-tu-size=32 / tu-inter-depth=1 / tu-intra-depth=1 / limit-tu=0 / rdoq-level=2 / dynamic-rd=0.00 / no-ssim-rd / signhide / no-tskip / nr-intra=0 / nr-inter=0 / no-constrained-intra / no-strong-intra-smoothing / max-merge=3 / limit-refs=3 / limit-modes / me=3 / subme=5 / merange=57 / temporal-mvp / no-frame-dup / no-hme / weightp / no-weightb / no-analyze-src-pics / deblock=0:0 / sao / no-sao-non-deblock / rd=4 / selective-sao=4 / no-early-skip / rskip / no-fast-intra / no-tskip-fast / no-cu-lossless / no-b-intra / no-splitrd-skip / rdpenalty=0 / psy-rd=1.30 / psy-rdoq=2.00 / no-rd-refine / no-lossless / cbqpoffs=0 / crqpoffs=0 / rc=crf / crf=19.5 / qcomp=0.60 / qpstep=4 / stats-write=0 / stats-read=0 / ipratio=1.40 / pbratio=1.30 / aq-mode=4 / aq-strength=1.10 / cutree / zone-count=0 / no-strict-cbr / qg-size=32 / no-rc-grain / qpmax=69 / qpmin=0 / no-const-vbv / sar=1 / overscan=0 / videoformat=5 / range=0 / colorprim=2 / transfer=2 / colormatrix=2 / chromaloc=0 / display-window=0 / cll=0,0 / min-luma=0 / max-luma=1023 / log2-max-poc-lsb=8 / vui-timing-info / vui-hrd-info / slices=1 / no-opt-qp-pps / no-opt-ref-list-length-pps / no-multi-pass-opt-rps / scenecut-bias=0.05 / hist-threshold=0.01 / no-opt-cu-delta-qp / no-aq-motion / no-hdr10 / no-hdr10-opt / no-dhdr10-opt / no-idr-recovery-sei / analysis-reuse-level=0 / analysis-save-reuse-level=0 / analysis-load-reuse-level=0 / scale-factor=0 / refine-intra=0 / refine-inter=0 / refine-mv=1 / refine-ctu-distortion=0 / no-limit-sao / ctu-info=0 / no-lowpass-dct / refine-analysis-type=0 / copy-pic=1 / max-ausize-factor=1.0 / no-dynamic-refine / no-single-sei / no-hevc-aq / no-svt / no-field / qp-adaptation-range=1.00 / no-scenecut-aware-qpconformance-window-offsets / right=0 / bottom=0
Default                                  : Yes
Forced                                   : No
Color range                              : Limited

Audio
ID                                       : 2
Format                                   : E-AC-3
Format/Info                              : Enhanced AC-3
Commercial name                          : Dolby Digital Plus
Codec ID                                 : A_EAC3
Duration                                 : 44 min 3 s
Bit rate mode                            : Constant
Bit rate                                 : 640 kb/s
Channel(s)                               : 6 channels
Channel layout                           : L R C LFE Ls Rs
Sampling rate                            : 48.0 kHz
Frame rate                               : 31.250 FPS (1536 SPF)
Bit depth                                : 32 bits
Compression mode                         : Lossy
Stream size                              : 202 MiB (20%)
Language                                 : English
Service kind                             : Complete Main
Default                                  : Yes
Forced                                   : No

Text
ID                                       : 3
Format                                   : UTF-8
Codec ID                                 : S_TEXT/UTF8
Codec ID/Info                            : UTF-8 Plain Text
Duration                                 : 43 min 35 s
Bit rate                                 : 63 b/s
Count of elements                        : 691
Stream size                              : 20.3 KiB (0%)
Title                                    : English (SDH)
Language                                 : English
Default                                  : No
Forced                                   : No

Source

General
Unique ID                                : 14357037457135007495504460370285337906 (0xACD1099091FB2C46CF54289C5DA9D32)
Complete name                            : Stargirl.S01E03.Icicle.1080p.DCU.WEB-DL.DDP5.1.H264-NTb.mkv
Format                                   : Matroska
Format version                           : Version 4
File size                                : 1.73 GiB
Duration                                 : 44 min 3 s
Overall bit rate                         : 5 620 kb/s
Encoded date                             : UTC 2020-06-01 04:06:12
Writing application                      : mkvmerge v19.0.0 ('Brave Captain') 64-bit
Writing library                          : libebml v1.3.5 + libmatroska v1.4.8

Hello everyone,
We are TAoE, a small team of passionate encoders who love encoding. We try our best to provide you with high quality releases.

Requests for movies and shows are welcome.
We have a form for encode requests which can be found here
Encode requests form
submit your request and it will be added to our encoding request list
You can view our encoding request list here
Encode requests list


When or if we encode it will depend on if we can obtain a good source to encode with and
if one of the TAoE encoders chooses to encode it. Unfortunately we are not able to encode everything,
new members are welcome as that helps us encode more content!

If you would like to join TAoE submit your request here!
TAoE member applications form




.........................................................................................................................................



Similar Torrents
Type Name Size Added S L
x264 Stargirl.S01E06.WEB.x264-PHOENiX[eztv.io].mkv
245.03 MB 2020-06-22 09:29:51 1484 458
HEVC/x265 Stargirl S01E07 (1080p DCU WEB-DL x265 HEVC 10bit ...
707.80 MB 2020-06-29 10:33:27 718 309
HD Stargirl.S01E06.PROPER.720p.WEB.H264-BTX[eztv.io]....
1.04 GB 2020-06-22 09:30:19 675 232
HD Stargirl.S01E06.1080p.WEB.H264-BTX[eztv.io].mkv
1.61 GB 2020-06-22 09:30:52 526 235
HD Stargirl.S01E08.1080p.WEB.H264-BTX[ettv]
1.64 GB 2020-07-06 04:21:06 416 126
x264 Stargirl.S01E01.WEB.x264-PHOENiX[eztv.io].mkv
401.29 MB 2020-05-18 14:21:37 244 18
HD Stargirl.S01E01.720p.WEB.H264-OATH[eztv.io].mkv
1.35 GB 2020-05-18 14:21:58 218 27
HD Stargirl.S01E04.1080p.WEB.H264-BTX
1.68 GB 2020-06-08 05:28:39 200 8
h.264/x264 Stargirl (2020) 1080p.H264 Ita Eng AC3 5.1 Multisu...
2.42 GB 2020-03-16 19:24:12 155 119
HD Stargirl.S01E06.PROPER.720p.WEB.H264-BTX[ettv]
1.07 GB 2020-06-22 04:25:35 96 90




Trackers:
udp://tracker.coppersurfer.tk:6969/announce

Stargirl (2020) S01E03 Icicle (1080p DCU Webrip x265 10bit EAC3 5.1 - Goki)[TAoE].mkv
Files
Stargirl (2020) S01E03 Icicle (1080p DCU Webrip x265 10bit EAC3 5.1 - Goki)[TAoE].mkv (986.95 MB)


Comments:

<< Previous      Next >>
1 - 1

[Report] Posted: 01-06-2020 at 15:41:14
nanchy



love so much!

1 - 1
<< Previous      Next >>


Powered by TT | Page Generated In 1.470723 secs.
| RSS Feed | Feed Info