Xvid/x264



Non-English

Site Friends
      ETTV

      Torrentz2

      Free Courses Online

      OneHack




The First Great Train Robbery - 1855 La prima grande rapina al treno (1978).720p.H264.ita.eng.Ac3-5....


Download torrent:      
Info Hash:  06D9041B487C33D692DF9A641507657CFF6EC5F5
Category:  Movies > HD
Torrent language:  English  
Seeds | Leech:  3 | 3
Complete:   418
Health:   
Total Size:  1.94 GB
Added By:        MIRCrewRS Site FriendSuperman
Date Added:  24-05-2020 04:17:pm | Last Edit:  10-07-2020 02:32:am
Un système d'onglets en javascript
Description Trackers Files 4 Comments 0 Download Update Seeds & Leechers Stat
The First Great Train Robbery - 1855 La prima grande rapina al treno (1978).720p.H264.ita.eng.Ac3-5.1.sub.ita.eng-MIRCrew


NO FOUND ONLY ORIGINAL RELEASE

My release is always in double track audio italian and Original audio
for select it use VLC or dvd player home
not use wmp

1855 La prima grande rapina al treno - The First Great Train Robbery (1978)

Quality MIRCrew on HD 720p da 1,9 gb









Titolo originale The First Great Train Robbery
Paese di produzione Regno Unito, Stati Uniti d'America
Anno 1978
Durata 110 min
Genere avventura, azione, commedia
Regia Michael Crichton
Soggetto Michael Crichton (romanzo omonimo)
Sceneggiatura Michael



   Sean Connery: Edward Pierce
   Donald Sutherland: Robert Agar
   Lesley-Anne Down: Miriam
   Alan Webb: Edgard Trent
   Pamela Salem: Emily Trent
   Gabrielle Lloyd: Elisabeth Trent
   Malcolm Terris: Henry Fowler
   Michael Elphick: Burgess
   Wayne Sleep: William "Clean Willy"



Nel 1855 il mezzo di locomozione più veloce e moderno al mondo è il treno a vapore. La banca inglese Hundleston & Bradford utilizza abitualmente il treno per trasferire da Londra al porto di Folkestone le casse contenenti le paghe dei soldati inglesi impegnati nella guerra di Crimea. Il prezioso carico è costantemente presidiato da guardie armate e custodito in una cassaforte con quattro serrature.



England, 1850s. A master criminal aims to rob a train of a large sum of gold. Security is incredibly tight and the task seems an impossible one. However, he has a plan and just the right people to carry it out.

 
















General

Complete name                            : 1855 La prima grande rapina al treno (1979).720p.ita.eng.sub.ita.eng-MIRCrew\1855 La prima grande rapina al treno (1979).720p.ita.eng.sub.ita.eng-MIRCrew.mkv
Format                                   : Matroska
Format version                           : Version 2
File size                                : 1.94 GiB
Duration                                 : 1h 50mn
Overall bit rate                         : 2 503 Kbps
Movie name                               : MIRCrew
Encoded date                             : UTC 2016-10-28 02:34:55
Writing application                      : mkvmerge v5.8.0 ('No Sleep / Pillow') built on Sep  2 2012 15:37:04
Writing library                          : Lavf54.63.100
COMMENT                                  : mircrew-releases

Video
ID                                       : 1
Format                                   : AVC
Format/Info                              : Advanced Video Codec
Format profile                           : [email protected]
Format settings, CABAC                   : Yes
Format settings, ReFrames                : 2 frames
Codec ID                                 : V_MPEG4/ISO/AVC
Duration                                 : 1h 50mn
Bit rate                                 : 2 000 Kbps
Width                                    : 1 280 pixels
Height                                   : 688 pixels
Display aspect ratio                     : 16:9
Frame rate mode                          : Variable
Frame rate                               : 23.976 fps
Color space                              : YUV
Chroma subsampling                       : 4:2:0
Bit depth                                : 8 bits
Scan type                                : Progressive
Bits/(Pixel*Frame)                       : 0.095
Stream size                              : 1.50 GiB (78%)
Title                                    : MIRCrew
Writing library                          : x264 core 130 r2273
Encoding settings                        : cabac=1 / ref=2 / deblock=1:0:0 / analyse=0x1:0x131 / me=hex / subme=7 / psy=1 / psy_rd=1.00:0.00 / mixed_ref=0 / me_range=16 / chroma_me=1 / trellis=1 / 8x8dct=0 / cqm=0 / deadzone=21,11 / fast_pskip=1 / chroma_qp_offset=-2 / threads=9 / lookahead_threads=1 / sliced_threads=0 / nr=0 / decimate=1 / interlaced=0 / bluray_compat=0 / constrained_intra=0 / bframes=3 / b_pyramid=0 / b_adapt=1 / b_bias=0 / direct=3 / weightb=1 / open_gop=0 / weightp=2 / keyint=230 / keyint_min=23 / scenecut=40 / intra_refresh=0 / rc_lookahead=40 / rc=abr / mbtree=1 / bitrate=2000 / ratetol=1.0 / qcomp=0.60 / qpmin=10 / qpmax=69 / qpstep=4 / vbv_maxrate=24000 / vbv_bufsize=24000 / nal_hrd=none / ip_ratio=1.40 / aq=1:1.00
Language                                 : Italian
Default                                  : Yes
Forced                                   : No
DURATION                                 : 01:50:51.312000000
NUMBER_OF_FRAMES                         : 159472
NUMBER_OF_BYTES                          : 13833025206
_STATISTICS_WRITING_APP                  : mkvmerge v9.4.2 ('So High') 64bit
_STATISTICS_WRITING_DATE_UTC             : 2016-10-28 02:34:55
_STATISTICS_TAGS                         : BPS DURATION NUMBER_OF_FRAMES NUMBER_OF_BYTES

Audio #1
ID                                       : 2
Format                                   : AC-3
Format/Info                              : Audio Coding 3
Mode extension                           : CM (complete main)
Codec ID                                 : A_AC3
Duration                                 : 1h 50mn
Bit rate mode                            : Constant
Bit rate                                 : 256 Kbps
Channel(s)                               : 2 channels
Channel positions                        : Front: L R
Sampling rate                            : 48.0 KHz
Bit depth                                : 16 bits
Compression mode                         : Lossy
Delay relative to video                  : -5ms
Stream size                              : 203 MiB (10%)
Title                                    : Ita Ac3
Language                                 : Italian
Default                                  : Yes
Forced                                   : No
DURATION                                 : 01:50:52.000000000
NUMBER_OF_FRAMES                         : 207875
NUMBER_OF_BYTES                          : 212864000
_STATISTICS_WRITING_APP                  : mkvmerge v9.4.2 ('So High') 64bit
_STATISTICS_WRITING_DATE_UTC             : 2016-10-28 02:34:55
_STATISTICS_TAGS                         : BPS DURATION NUMBER_OF_FRAMES NUMBER_OF_BYTES

Audio #2
ID                                       : 3
Format                                   : AC-3
Format/Info                              : Audio Coding 3
Mode extension                           : CM (complete main)
Codec ID                                 : A_AC3
Duration                                 : 1h 50mn
Bit rate mode                            : Constant
Bit rate                                 : 256 Kbps
Channel(s)                               : 2 channels
Channel positions                        : Front: L R
Sampling rate                            : 48.0 KHz
Bit depth                                : 16 bits
Compression mode                         : Lossy
Delay relative to video                  : -5ms
Stream size                              : 203 MiB (10%)
Title                                    : Eng AC3
Language                                 : English
Default                                  : No
Forced                                   : No
DURATION                                 : 01:50:52.000000000
NUMBER_OF_FRAMES                         : 623625
NUMBER_OF_BYTES                          : 1254733588
_STATISTICS_WRITING_APP                  : mkvmerge v9.4.2 ('So High') 64bit
_STATISTICS_WRITING_DATE_UTC             : 2016-10-28 02:34:55
_STATISTICS_TAGS                         : BPS DURATION NUMBER_OF_FRAMES NUMBER_OF_BYTES

Menu
00:00:00.000                             : :Chapter 1
00:04:34.482                             : :Chapter 2
00:08:54.534                             : :Chapter 3
00:11:57.925                             : :Chapter 4
00:22:42.778                             : :Chapter 5
00:31:21.212                             : :Chapter 6
00:38:49.327                             : :Chapter 7
00:45:56.962                             : :Chapter 8
00:55:24.904                             : :Chapter 9
01:03:13.206                             : :Chapter 10
01:06:52.758                             : :Chapter 11
01:15:05.083                             : :Chapter 12
01:18:54.062                             : :Chapter 13
01:28:36.227                             : :Chapter 14
01:41:45.182                             : :Chapter 15
01:46:34.429                             : :Chapter 16








Similar Torrents
Type Name Size Added S L
Divx/Xvid The.First.King.2019.BDRip.XviD.AC3-EVO
1.33 GB 2019-09-19 17:07:44 10042 9615
HD Video HD SIRO-3753 requirements Amateur, first AV shoot...
1.84 GB 2019-03-31 14:43:07 8401 9086
Video Bottom Breasts Way and beautiful girlfriends for ...
545.09 MB 2019-09-25 08:45:45 7100 18557
HD Video HD MIDE-679 first time sex Pure huge J Cup 19 yea...
4.35 GB 2019-08-30 18:29:07 6700 8369
HD Video HD STARS-047 the first time in my life The video ...
5.82 GB 2019-03-22 17:04:38 6687 9317
HD Video HD SIRO-3764 time lapsenetwork AV requirementsAV ...
1.84 GB 2019-03-31 14:43:09 6375 7657
Video FC2-PPV-1062588 took the firstfull face-out16743 u...
729.20 MB 2019-04-10 19:37:08 6075 7716
HD Video HD SSNI-430-sensitive Tits of the girl intense sk...
4.26 GB 2019-03-05 18:27:52 6072 7926
Video The first vaginal cum shot is lifted! ! Super prem...
1.61 GB 2019-10-19 20:52:13 5710 14212
HD Video HD DIC-056 ordinary girl to actress to the trajec...
4.61 GB 2019-02-16 00:55:35 5506 9312




Trackers:
udp://tracker.torrent.eu.org:451/announce

The First Great Train Robbery - 1855 La prima grande rapina al treno (1978).720p.H264.ita.eng.Ac3-5.1.sub.ita.eng-MIRCrew
Files
1855 La prima grande rapina al treno (1979).720p.ita.eng.sub.ita.eng-MIRCrew.eng.srt (64.14 kB)
1855 La prima grande rapina al treno (1979).720p.ita.eng.sub.ita.eng-MIRCrew.ita.srt (62.99 kB)
1855 La prima grande rapina al treno (1979).720p.ita.eng.sub.ita.eng-MIRCrew.mkv (1.94 GB)
1855 La prima grande rapina al treno (1979).720p.ita.eng.sub.ita.eng-MIRCrew.srt (67.00 B)


Comments:
No comments still posted

Powered by TT | Page Generated In 27.888856 secs.
| RSS Feed | Feed Info