Xvid/x264



Non-English

Site Friends
      ETTV

      Torrentz2

      Free Courses Online

      OneHack




Act of Valor (2012).720p.H264.ita.eng.Ac3-5.1.sub.NUita.eng-MIRCrew


Download torrent:      
Info Hash:  0DF729CC1E61FEC3E82E530DF7C8A72BAB5E573F
Category:  Movies > HD
Torrent language:  English  
Seeds | Leech:  17 | 0
Complete:   377
Health:   
Total Size:  1.99 GB
Added By:        MIRCrewRS Site FriendSuperman
Date Added:  24-05-2020 12:32:pm | Last Edit:  10-07-2020 03:30:am
Un système d'onglets en javascript
Description Trackers Files 4 Comments 0 Download Update Seeds & Leechers Stat
Act of Valor (2012).720p.H264.ita.eng.Ac3-5.1.sub.NUita.eng-MIRCrew


NO FOUND ONLY ORIGINAL RELEASE

My release is always in double track audio italian and Original audio
for select it use VLC or dvd player home
not use wmp



Quality MIRCrew on HD 720p da 1,9 gb









Titolo originale Act of Valor
Lingua originale inglese
Paese di produzione Stati Uniti d'America
Anno 2012
Durata 111 minuti
Rapporto 1.33:1
Genere avventura, azione, guerra
Regia Mike McCoy, Scott Waugh
Soggetto Kurt Johnstad
Sceneggiatura Kurt Johnstad



   Emilio Rivera: Sanchez
   Nestor Serrano: Walter Ross
   Gonzalo Menendez: Comandante Pedros
   Roselyn Sánchez: Lisa Morales
   Alex Veadov: Christo
   Jason Cottle: Abu Shabal
   Marc Margulies: ambasciatore USA
   Dimiter Marinov: Kerimov



Nelle Filippine in una scuola elementare un terrorista con un'autobomba uccide l'ambasciatore degli Stati Uniti, suo figlio, e decine di bambini. L'ideatore dell'attentato è un terrorista ceceno di nome Abu Shabal (Jason Cottle) uscito da un campo di addestramento in Indonesia.



An unprecedented blend of real-life heroism and original filmmaking, Act of Valor stars a group of active-duty Navy SEALs in a powerful story of contemporary global anti-terrorism. Inspired by true events, the film combines stunning combat sequences, up-to-the minute battlefield technology and heart-pumping emotion for the ultimate action adventure.

 
















General

Complete name                            : Act of Valor (2012).720p.H264.ita.eng.sub.NUita.eng-MIRCrew\Act of Valor (2012).720p.H264.ita.eng.sub.NUita.eng-MIRCrew.mkv
Format                                   : Matroska
Format version                           : Version 2
File size                                : 1.99 GiB
Duration                                 : 1h 50mn
Overall bit rate                         : 2 582 Kbps
Movie name                               : MIRCrew
Encoded date                             : UTC 2019-10-28 10:56:18
Writing application                      : mkvmerge v5.8.0 ('No Sleep / Pillow') built on Sep  2 2012 15:37:04
Writing library                          : Lavf54.63.100
COMMENT                                  : MIRCrew
MIRCREW                                  : 1

Video
ID                                       : 1
Format                                   : AVC
Format/Info                              : Advanced Video Codec
Format profile                           : [email protected]
Format settings, CABAC                   : Yes
Format settings, ReFrames                : 2 frames
Codec ID                                 : V_MPEG4/ISO/AVC
Duration                                 : 1h 50mn
Bit rate                                 : 1 762 Kbps
Nominal bit rate                         : 1 900 Kbps
Width                                    : 1 280 pixels
Height                                   : 528 pixels
Display aspect ratio                     : 2.40:1
Original display aspect ratio            : 2.40:1
Frame rate mode                          : Variable
Frame rate                               : 23.976 fps
Color space                              : YUV
Chroma subsampling                       : 4:2:0
Bit depth                                : 8 bits
Scan type                                : Progressive
Bits/(Pixel*Frame)                       : 0.109
Stream size                              : 1.36 GiB (68%)
Title                                    : MIRCrew
Writing library                          : x264 core 130 r2273
Encoding settings                        : cabac=1 / ref=2 / deblock=1:0:0 / analyse=0x1:0x131 / me=hex / subme=7 / psy=1 / psy_rd=1.00:0.00 / mixed_ref=0 / me_range=16 / chroma_me=1 / trellis=1 / 8x8dct=0 / cqm=0 / deadzone=21,11 / fast_pskip=1 / chroma_qp_offset=-2 / threads=9 / lookahead_threads=1 / sliced_threads=0 / nr=0 / decimate=1 / interlaced=0 / bluray_compat=0 / constrained_intra=0 / bframes=3 / b_pyramid=0 / b_adapt=1 / b_bias=0 / direct=3 / weightb=1 / open_gop=0 / weightp=2 / keyint=230 / keyint_min=23 / scenecut=40 / intra_refresh=0 / rc_lookahead=40 / rc=abr / mbtree=1 / bitrate=1900 / ratetol=1.0 / qcomp=0.60 / qpmin=10 / qpmax=69 / qpstep=4 / vbv_maxrate=24000 / vbv_bufsize=24000 / nal_hrd=none / ip_ratio=1.40 / aq=1:1.00
Language                                 : Italian
Default                                  : Yes
Forced                                   : No
DURATION                                 : 01:50:16.610000000
NUMBER_OF_FRAMES                         : 158640
NUMBER_OF_BYTES                          : 1981915141
_STATISTICS_WRITING_APP                  : mkvmerge v38.0.0 ('The Silent Type') 64-bit
_STATISTICS_WRITING_DATE_UTC             : 2019-10-28 10:56:18
_STATISTICS_TAGS                         : BPS DURATION NUMBER_OF_FRAMES NUMBER_OF_BYTES

Audio #1
ID                                       : 2
Format                                   : AC-3
Format/Info                              : Audio Coding 3
Mode extension                           : CM (complete main)
Codec ID                                 : A_AC3
Duration                                 : 1h 50mn
Bit rate mode                            : Constant
Bit rate                                 : 384 Kbps
Channel(s)                               : 6 channels
Channel positions                        : Front: L C R, Side: L R, LFE
Sampling rate                            : 48.0 KHz
Bit depth                                : 16 bits
Compression mode                         : Lossy
Delay relative to video                  : -5ms
Stream size                              : 303 MiB (15%)
Title                                    : Ita Ac3 5.1
Language                                 : Italian
Default                                  : Yes
Forced                                   : No
DURATION                                 : 01:50:16.618000000
NUMBER_OF_FRAMES                         : 310154
NUMBER_OF_BYTES                          : 185266661
_STATISTICS_WRITING_APP                  : mkvmerge v38.0.0 ('The Silent Type') 64-bit
_STATISTICS_WRITING_DATE_UTC             : 2019-10-28 10:56:18
_STATISTICS_TAGS                         : BPS DURATION NUMBER_OF_FRAMES NUMBER_OF_BYTES

Audio #2
ID                                       : 3
Format                                   : AC-3
Format/Info                              : Audio Coding 3
Mode extension                           : CM (complete main)
Codec ID                                 : A_AC3
Duration                                 : 1h 50mn
Bit rate mode                            : Constant
Bit rate                                 : 384 Kbps
Channel(s)                               : 6 channels
Channel positions                        : Front: L C R, Side: L R, LFE
Sampling rate                            : 48.0 KHz
Bit depth                                : 16 bits
Compression mode                         : Lossy
Delay relative to video                  : -5ms
Stream size                              : 303 MiB (15%)
Title                                    : Eng Ac3 5.1
Language                                 : English
Default                                  : No
Forced                                   : No
DURATION                                 : 01:50:16.597000000
NUMBER_OF_FRAMES                         : 310153
NUMBER_OF_BYTES                          : 185264727
_STATISTICS_WRITING_APP                  : mkvmerge v38.0.0 ('The Silent Type') 64-bit
_STATISTICS_WRITING_DATE_UTC             : 2019-10-28 10:56:18
_STATISTICS_TAGS                         : BPS DURATION NUMBER_OF_FRAMES NUMBER_OF_BYTES

Menu
00:00:00.000                             : :00:00:00.000
00:04:13.712                             : :00:04:13.712
00:08:14.619                             : :00:08:14.619
00:11:40.199                             : :00:11:40.199
00:15:51.367                             : :00:15:51.367
00:20:26.934                             : :00:20:26.934
00:25:32.281                             : :00:25:32.281
00:30:10.058                             : :00:30:10.058
00:35:50.607                             : :00:35:50.607
00:39:21.150                             : :00:39:21.150
00:43:02.038                             : :00:43:02.038
00:48:31.200                             : :00:48:31.200
00:51:46.061                             : :00:51:46.061
00:54:54.791                             : :00:54:54.791
00:58:58.618                             : :00:58:58.618
01:02:49.057                             : :01:02:49.057
01:08:10.461                             : :01:08:10.461
01:11:54.560                             : :01:11:54.560
01:17:47.872                             : :01:17:47.872
01:21:51.156                             : :01:21:51.156
01:26:12.751                             : :01:26:12.751
01:32:46.352                             : :01:32:46.352
01:35:48.618                             : :01:35:48.618
01:41:55.109                             : :01:41:55.109









Trackers:
udp://tracker.torrent.eu.org:451/announce

Act of Valor (2012).720p.H264.ita.eng.Ac3-5.1.sub.NUita.eng-MIRCrew
Files
Act of Valor (2012).720p.H264.ita.eng.sub.NUita.eng-MIRCrew.eng.srt (73.42 kB)
Act of Valor (2012).720p.H264.ita.eng.sub.NUita.eng-MIRCrew.mkv (1.99 GB)
Act of Valor (2012).720p.H264.ita.eng.sub.NUita.eng-MIRCrew.NUIta.srt (65.95 kB)
Act of Valor (2012).720p.H264.ita.eng.sub.NUita.eng-MIRCrew.srt (2.21 kB)


Comments:
No comments still posted

Powered by TT | Page Generated In 0.974553 secs.
| RSS Feed | Feed Info