Xvid/x264



Non-English

Site Friends
      ETTV

      Torrentz2

      Free Courses Online

      Nulled Premium




The NeverEnding Story (1984) RM4K (1080p BDRip x265 10bit DTS-HD MA 5.1 - Balthallion) [TAoE]


Download torrent:      
Info Hash:  0e5d42ee9976eef2a7db6fda64259626d4b990d6
Category:  Movies > HEVC/x265
Torrent language:  English  
Seeds | Leech:  114 | 61
Complete:   195
Health:   
Total Size:  5.44 GB
Added By:        Goki Site FriendSuperman
Date Added:  22-05-2020 04:24:pm | Last Edit:  22-05-2020 10:28:pm

IMDB
The NeverEnding Story
The NeverEnding Story Released 20 Jul 1984

Genre Adventure, Drama, Family, Fantasy

Director Wolfgang Petersen

Writer Wolfgang Petersen (screenplay by), Herman Weigel (screenplay by), Michael Ende (novel), Robert Easton (additional dialogue)

Actors Barret Oliver, Gerald McRaney, Chris Eastman, Darryl Cooksey

Plot A troubled boy dives into a wondrous fantasy world through the pages of a mysterious book.

Link http://www.imdb.com/title/tt0088323

Last Updated 02-06-2020 06:47:31
7.4

Votes 126,928

Un système d'onglets en javascript
Description Trackers Files 2 Comments 0 Download Update Seeds & Leechers Stat





The NeverEnding Story (1984) IMDB









Encoder's Note
This is the 2019 German Remaster, not the 2014 30th Anniversary release.
It adds over 5 minutes of Extended content.
All credits are in German, and also replace the Title Song by Limahl with mood music.



Media Information

General
Unique ID                                : 62722613537896451504001402878037182675 (0x2F2FEF9B17E40358D8850AA727D1C8D3)
Complete name                            : The NeverEnding Story (1984) RM4K (1080p BDRip x265 10bit DTS-HD MA 5.1 - Balthallion) [TAoE].mkv
Format                                   : Matroska
Format version                           : Version 4
File size                                : 5.39 GiB
Duration                                 : 1 h 41 min
Overall bit rate                         : 7 623 kb/s
Movie name                               : The NeverEnding Story (1984) RM4K (1080p BDRip x265 10bit DTS-HD MA 5.1 - Balthallion) [TAoE].mkv
Encoded date                             : UTC 2020-05-22 11:39:57
Writing application                      : mkvmerge v45.0.0 ('Heaven in Pennies') 64-bit
Writing library                          : libebml v1.3.10 + libmatroska v1.5.2 / Lavf58.29.100

Video
ID                                       : 1
Format                                   : HEVC
Format/Info                              : High Efficiency Video Coding
Format profile                           : Main [email protected]@Main
Codec ID                                 : V_MPEGH/ISO/HEVC
Duration                                 : 1 h 41 min
Bit rate                                 : 5 567 kb/s
Width                                    : 1 920 pixels
Height                                   : 1 080 pixels
Display aspect ratio                     : 16:9
Frame rate mode                          : Constant
Frame rate                               : 24.000 FPS
Color space                              : YUV
Chroma subsampling                       : 4:2:0
Bit depth                                : 10 bits
Bits/(Pixel*Frame)                       : 0.112
Stream size                              : 3.93 GiB (73%)
Title                                    : Encoded by Balthallion for TAoE
Writing library                          : x265 3.2+35-acc5d16999e2:[Windows][GCC 9.2.1][64 bit] 10bit
Encoding settings                        : cpuid=1111039 / frame-threads=4 / numa-pools=16 / wpp / no-pmode / no-pme / no-psnr / no-ssim / log-level=2 / input-csp=1 / input-res=1920x1080 / interlace=0 / total-frames=0 / level-idc=0 / high-tier=1 / uhd-bd=0 / ref=4 / no-allow-non-conformance / no-repeat-headers / annexb / no-aud / no-hrd / info / hash=0 / no-temporal-layers / open-gop / min-keyint=24 / keyint=250 / gop-lookahead=0 / bframes=8 / b-adapt=2 / b-pyramid / bframe-bias=0 / rc-lookahead=80 / lookahead-slices=4 / scenecut=40 / hist-scenecut=0 / radl=0 / no-splice / no-intra-refresh / ctu=64 / min-cu-size=8 / no-rect / no-amp / max-tu-size=32 / tu-inter-depth=1 / tu-intra-depth=1 / limit-tu=0 / rdoq-level=2 / dynamic-rd=0.00 / no-ssim-rd / signhide / no-tskip / nr-intra=0 / nr-inter=0 / no-constrained-intra / no-strong-intra-smoothing / max-merge=3 / limit-refs=3 / limit-modes / me=3 / subme=5 / merange=57 / temporal-mvp / no-frame-dup / no-hme / weightp / no-weightb / no-analyze-src-pics / deblock=0:0 / sao / no-sao-non-deblock / rd=4 / selective-sao=4 / no-early-skip / rskip / no-fast-intra / no-tskip-fast / no-cu-lossless / no-b-intra / no-splitrd-skip / rdpenalty=0 / psy-rd=1.30 / psy-rdoq=2.00 / no-rd-refine / no-lossless / cbqpoffs=0 / crqpoffs=0 / rc=crf / crf=19.0 / qcomp=0.60 / qpstep=4 / stats-write=0 / stats-read=0 / ipratio=1.40 / pbratio=1.30 / aq-mode=4 / aq-strength=1.10 / cutree / zone-count=0 / no-strict-cbr / qg-size=32 / no-rc-grain / qpmax=69 / qpmin=0 / no-const-vbv / sar=1 / overscan=0 / videoformat=5 / range=0 / colorprim=2 / transfer=2 / colormatrix=2 / chromaloc=0 / display-window=0 / cll=0,0 / min-luma=0 / max-luma=1023 / log2-max-poc-lsb=8 / vui-timing-info / vui-hrd-info / slices=1 / no-opt-qp-pps / no-opt-ref-list-length-pps / no-multi-pass-opt-rps / scenecut-bias=0.05 / hist-threshold=0.01 / no-opt-cu-delta-qp / no-aq-motion / no-hdr10 / no-hdr10-opt / no-dhdr10-opt / no-idr-recovery-sei / analysis-reuse-level=0 / analysis-save-reuse-level=0 / analysis-load-reuse-level=0 / scale-factor=0 / refine-intra=0 / refine-inter=0 / refine-mv=1 / refine-ctu-distortion=0 / no-limit-sao / ctu-info=0 / no-lowpass-dct / refine-analysis-type=0 / copy-pic=1 / max-ausize-factor=1.0 / no-dynamic-refine / no-single-sei / no-hevc-aq / no-svt / no-field / qp-adaptation-range=1.00 / no-scenecut-aware-qpconformance-window-offsets / right=0 / bottom=0
Language                                 : English
Default                                  : Yes
Forced                                   : No
Color range                              : Limited

Audio
ID                                       : 2
Format                                   : DTS XBR
Format/Info                              : Digital Theater Systems
Commercial name                          : DTS-HD High Resolution Audio
Codec ID                                 : A_DTS
Duration                                 : 1 h 41 min
Bit rate mode                            : Constant
Bit rate                                 : 2 046 kb/s
Channel(s)                               : 6 channels
Channel layout                           : C L R Ls Rs LFE
Sampling rate                            : 48.0 kHz
Frame rate                               : 93.750 FPS (512 SPF)
Bit depth                                : 24 bits
Compression mode                         : Lossy
Stream size                              : 1.45 GiB (27%)
Language                                 : English
Default                                  : Yes
Forced                                   : No

Text #1
ID                                       : 3
Format                                   : UTF-8
Codec ID                                 : S_TEXT/UTF8
Codec ID/Info                            : UTF-8 Plain Text
Duration                                 : 1 h 35 min
Bit rate                                 : 30 b/s
Count of elements                        : 796
Stream size                              : 21.4 KiB (0%)
Language                                 : English
Default                                  : No
Forced                                   : No

Text #2
ID                                       : 4
Format                                   : PGS
Muxing mode                              : zlib
Codec ID                                 : S_HDMV/PGS
Codec ID/Info                            : Picture based subtitle format used on BDs/HD-DVDs
Duration                                 : 1 h 37 min
Bit rate                                 : 30.4 kb/s
Count of elements                        : 1334
Stream size                              : 21.3 MiB (0%)
Language                                 : German
Default                                  : No
Forced                                   : No

Menu
00:00:00.000                             : :Chapter 01
00:06:13.041                             : :Chapter 02
00:08:00.000                             : :Chapter 03
00:13:12.375                             : :Chapter 04
00:19:45.208                             : :Chapter 05
00:24:05.625                             : :Chapter 06
00:29:41.666                             : :Chapter 07
00:33:43.791                             : :Chapter 08
00:39:30.625                             : :Chapter 09
00:45:05.208                             : :Chapter 10
00:47:54.916                             : :Chapter 11
00:50:35.916                             : :Chapter 11
00:52:05.541                             : :Chapter 12
00:58:53.791                             : :Chapter 13
01:03:02.958                             : :Chapter 14
01:06:25.583                             : :Chapter 15
01:10:57.041                             : :Chapter 16
01:16:21.791                             : :Chapter 17
01:22:15.750                             : :Chapter 18
01:25:08.041                             : :Chapter 19
01:27:24.875                             : :Chapter 20
01:33:43.916                             : :Chapter 21
01:38:26.500                             : :Chapter 22







Source Information

General
Unique ID                                : 277138246951482677763849306499103676855 (0xD07EE285C8BFB22EFF3775F4F6AD59B7)
Complete name                            : The NeverEnding Story 4K REMASTERED 1984 MULTi COMPLETE BLURAY-OLDHAM.ISO
Format                                   : Matroska
Format version                           : Version 2
File size                                : 27.2 GiB
Duration                                 : 1 h 41 min
Overall bit rate mode                    : Variable
Overall bit rate                         : 38.5 Mb/s
Movie name                               : Die unendliche Geschichte
Encoded date                             : UTC 2020-05-21 15:00:56
Writing application                      : MakeMKV v1.15.1 win(x64-release)
Writing library                          : libmakemkv v1.15.1 (1.3.5/1.4.7) win(x64-release)

Video
ID                                       : 1
ID in the original source medium         : 4113 (0x1011)
Format                                   : AVC
Format/Info                              : Advanced Video Codec
Format profile                           : [email protected]
Format settings                          : CABAC / 4 Ref Frames
Format settings, CABAC                   : Yes
Format settings, Reference frames        : 4 frames
Codec ID                                 : V_MPEG4/ISO/AVC
Duration                                 : 1 h 41 min
Bit rate mode                            : Variable
Bit rate                                 : 30.9 Mb/s
Maximum bit rate                         : 38.0 Mb/s
Width                                    : 1 920 pixels
Height                                   : 1 080 pixels
Display aspect ratio                     : 16:9
Frame rate mode                          : Constant
Frame rate                               : 24.000 FPS
Color space                              : YUV
Chroma subsampling                       : 4:2:0
Bit depth                                : 8 bits
Scan type                                : Progressive
Bits/(Pixel*Frame)                       : 0.620
Stream size                              : 21.8 GiB (80%)
Language                                 : English
Default                                  : No
Forced                                   : No
Original source medium                   : Blu-ray

Audio #1
ID                                       : 2
ID in the original source medium         : 4352 (0x1100)
Format                                   : DTS XBR
Format/Info                              : Digital Theater Systems
Commercial name                          : DTS-HD High Resolution Audio
Codec ID                                 : A_DTS
Duration                                 : 1 h 41 min
Bit rate mode                            : Constant
Bit rate                                 : 2 046 kb/s
Channel(s)                               : 6 channels
Channel layout                           : C L R Ls Rs LFE
Sampling rate                            : 48.0 kHz
Frame rate                               : 93.750 FPS (512 SPF)
Bit depth                                : 24 bits
Compression mode                         : Lossy
Stream size                              : 1.45 GiB (5%)
Title                                    : Surround 5.1
Language                                 : German
Default                                  : Yes
Forced                                   : No
Original source medium                   : Blu-ray

Audio #2
ID                                       : 3
ID in the original source medium         : 4352 (0x1100)
Format                                   : DTS
Format/Info                              : Digital Theater Systems
Codec ID                                 : A_DTS
Duration                                 : 1 h 41 min
Bit rate mode                            : Constant
Bit rate                                 : 1 509 kb/s
Channel(s)                               : 6 channels
Channel layout                           : C L R Ls Rs LFE
Sampling rate                            : 48.0 kHz
Frame rate                               : 93.750 FPS (512 SPF)
Bit depth                                : 24 bits
Compression mode                         : Lossy
Stream size                              : 1.07 GiB (4%)
Title                                    : Surround 5.1
Language                                 : German
Default                                  : No
Forced                                   : No
Original source medium                   : Blu-ray

Audio #3
ID                                       : 4
ID in the original source medium         : 4353 (0x1101)
Format                                   : AC-3
Format/Info                              : Audio Coding 3
Commercial name                          : Dolby Digital
Codec ID                                 : A_AC3
Duration                                 : 1 h 41 min
Bit rate mode                            : Constant
Bit rate                                 : 224 kb/s
Channel(s)                               : 2 channels
Channel layout                           : L R
Sampling rate                            : 48.0 kHz
Frame rate                               : 31.250 FPS (1536 SPF)
Compression mode                         : Lossy
Stream size                              : 162 MiB (1%)
Title                                    : Stereo
Language                                 : German
Service kind                             : Complete Main
Default                                  : No
Forced                                   : No
Original source medium                   : Blu-ray

Audio #4
ID                                       : 5
ID in the original source medium         : 4354 (0x1102)
Format                                   : DTS XBR
Format/Info                              : Digital Theater Systems
Commercial name                          : DTS-HD High Resolution Audio
Codec ID                                 : A_DTS
Duration                                 : 1 h 41 min
Bit rate mode                            : Constant
Bit rate                                 : 2 046 kb/s
Channel(s)                               : 6 channels
Channel layout                           : C L R Ls Rs LFE
Sampling rate                            : 48.0 kHz
Frame rate                               : 93.750 FPS (512 SPF)
Bit depth                                : 24 bits
Compression mode                         : Lossy
Stream size                              : 1.45 GiB (5%)
Title                                    : Surround 5.1
Language                                 : English
Default                                  : No
Forced                                   : No
Original source medium                   : Blu-ray

Audio #5
ID                                       : 6
ID in the original source medium         : 4354 (0x1102)
Format                                   : DTS
Format/Info                              : Digital Theater Systems
Codec ID                                 : A_DTS
Duration                                 : 1 h 41 min
Bit rate mode                            : Constant
Bit rate                                 : 1 509 kb/s
Channel(s)                               : 6 channels
Channel layout                           : C L R Ls Rs LFE
Sampling rate                            : 48.0 kHz
Frame rate                               : 93.750 FPS (512 SPF)
Bit depth                                : 24 bits
Compression mode                         : Lossy
Stream size                              : 1.07 GiB (4%)
Title                                    : Surround 5.1
Language                                 : English
Default                                  : No
Forced                                   : No
Original source medium                   : Blu-ray

Audio #6
ID                                       : 7
ID in the original source medium         : 4355 (0x1103)
Format                                   : AC-3
Format/Info                              : Audio Coding 3
Commercial name                          : Dolby Digital
Codec ID                                 : A_AC3
Duration                                 : 1 h 41 min
Bit rate mode                            : Constant
Bit rate                                 : 224 kb/s
Channel(s)                               : 2 channels
Channel layout                           : L R
Sampling rate                            : 48.0 kHz
Frame rate                               : 31.250 FPS (1536 SPF)
Compression mode                         : Lossy
Stream size                              : 162 MiB (1%)
Title                                    : Stereo
Language                                 : English
Service kind                             : Complete Main
Default                                  : No
Forced                                   : No
Original source medium                   : Blu-ray

Text
ID                                       : 8
ID in the original source medium         : 4608 (0x1200)
Format                                   : PGS
Codec ID                                 : S_HDMV/PGS
Codec ID/Info                            : Picture based subtitle format used on BDs/HD-DVDs
Duration                                 : 1 h 37 min
Bit rate                                 : 30.4 kb/s
Count of elements                        : 1334
Stream size                              : 21.3 MiB (0%)
Language                                 : German
Default                                  : No
Forced                                   : No
Original source medium                   : Blu-ray

Menu
00:00:00.000                             : en:Chapter 01
00:06:13.041                             : en:Chapter 02
00:08:00.000                             : en:Chapter 03
00:13:12.375                             : en:Chapter 04
00:19:45.208                             : en:Chapter 05
00:24:05.625                             : en:Chapter 06
00:29:41.666                             : en:Chapter 07
00:33:43.791                             : en:Chapter 08
00:39:30.625                             : en:Chapter 09
00:45:05.208                             : en:Chapter 10
00:47:54.916                             : en:Chapter 11
00:52:05.708                             : en:Chapter 12
00:58:53.958                             : en:Chapter 13
01:03:03.125                             : en:Chapter 14
01:06:25.750                             : en:Chapter 15
01:10:57.208                             : en:Chapter 16
01:16:21.958                             : en:Chapter 17
01:22:15.916                             : en:Chapter 18
01:25:08.208                             : en:Chapter 19
01:27:25.041                             : en:Chapter 20
01:33:44.083                             : en:Chapter 21
01:38:26.666                             : en:Chapter 22



.........................................................................................................................................


Hello everyone,
We are TAoE, a small team of passionate encoders who love encoding. We try our best to provide you with high quality releases.

Requests for movies and shows are welcome.
We have a form for encode requests which can be found here
Encode requests form
submit your request and it will be added to our encoding request list
You can view our encoding request list here
Encode requests list


When or if we encode it will depend on if we can obtain a good source to encode with and
if one of the TAoE encoders chooses to encode it. Unfortunately we are not able to encode everything,
new members are welcome as that helps us encode more content!

If you would like to join TAoE submit your request here!
TAoE member applications form




.........................................................................................................................................


Similar Torrents
Type Name Size Added S L
Divx/Xvid Peter.Pan.The.Quest.for.the.Never.Book.2018.HDRip....
1.17 GB 2018-11-14 20:11:26 6701 2144
h.264/x264 Peter.Pan.The.Quest.for.the.Never.Book.2018.DVDRip...
981.90 MB 2019-04-04 15:29:39 733 642
HD Peter.Pan.The.Quest.for.the.Never.Book.2018.1080p....
3.40 GB 2018-11-14 20:08:42 436 229
h.264/x264 Peter Pan The Quest for the Never Book 2018 DVDRip...
749.34 MB 2019-04-06 13:05:15 353 211
h.264/x264 Peter.Pan.The.Quest.for.the.Never.Book.2018.HDRip....
1.17 GB 2018-11-14 20:10:16 341 90
HD Peter.Pan.The.Quest.for.the.Never.Book.2018.1080p....
1,019.73 MB 2018-11-15 15:06:19 187 66
HD Video HD VRTM-416 swimming sole member of her sisters s...
4.54 GB 2019-03-27 06:52:47 185 6601
Dubs/Dual Audio The Neverending Story 1984 x264 720p BluRay Dual A...
713.82 MB 2019-07-09 07:23:52 122 139
HEVC/x265 The NeverEnding Story (1984) RM4K (1080p BDRip x26...
4.31 GB 2020-05-22 15:25:57 71 77
HEVC/x265 The NeverEnding Story (1984) (1080p BDRip x265 10b...
4.77 GB 2020-05-19 15:01:39 49 16




Trackers:
udp://tracker.coppersurfer.tk:6969/announce

The NeverEnding Story (1984) RM4K (1080p BDRip x265 10bit DTS-HD MA 5.1 - Balthallion) [TAoE]
Files
Featurettes/Title Song - Limahl - The NeverEnding Story (1984) [TAoE].mkv (53.67 MB)
The NeverEnding Story (1984) RM4K (1080p BDRip x265 10bit DTS-HD MA 5.1 - Balthallion) [TAoE].mkv (5.39 GB)


Comments:
No comments still posted

Powered by TT | Page Generated In 11.087586 secs.
| RSS Feed | Feed Info