Xvid/x264



Non-English

Site Friends
      ETTV

      Torrentz2

      Free Courses Online

      Nulled Premium




Chicane - Behind The Sun (2020 Anniversary Mixes) (2020) Flac


Download torrent:      
Info Hash:  a14897c0532fb324d57aab5372c330fa67a56bff
Category:  Music > Audio
Torrent language:  English  
Seeds | Leech:  73 | 25
Complete:   147
Health:   
Total Size:  751.43 MB
Added By:        was95
Date Added:  22-05-2020 03:00:pm | Last Edit:  22-05-2020 05:26:pm

Un système d'onglets en javascript
Description Trackers Files 26 Comments 1 Download Update Seeds & Leechers Stat


Quality-Lossless
Release-2020
Duration-02:01:07
File Size-787 MB
Genre-Dance
Cover Size-1400px

CD1
----------------------------------------------------------------------------------------------
Analyzed: Behind The Sun (2020 Anniversary Mixes) /  Artist: Chicane
----------------------------------------------------------------------------------------------
DR Peak RMS Duration Title [codec]
----------------------------------------------------------------------------------------------
DR6 -0.00 dB -8.97 dB 2:28 01 - Overture (2020 Anniversary Remix) [flac]
DR8 -0.00 dB -9.97 dB 3:12 02 - Low Sun (Blood Groove & Kikis Remix) [flac]
DR8 -0.00 dB -12.21 dB 4:25 03 - No Ordinary Morning (The Thrillseekers Remix) [flac]
DR8 -0.00 dB -10.99 dB 3:43 04 - Saltwater (Chicane Slow Tide Remix) [flac]
DR5 -0.00 dB -7.63 dB 3:24 05 - Halcyon (2020 Anniversary Remix) [flac]
DR6 -0.00 dB -7.25 dB 3:46 06 - Autumn Tactics (Jody Wisternoff Remix) [flac]
DR9 -0.00 dB -11.85 dB 3:49 07 - Overlap (2020 Anniversary Remix) [flac]
DR7 -0.00 dB -10.01 dB 3:54 08 - Don't Give Up (Chicane Lockdown Remix) [flac]
DR5 -0.00 dB -7.78 dB 4:07 09 - Saltwater (Kevin de Vries Remix) [flac]
DR7 -0.00 dB -9.66 dB 4:04 10 - Andromeda (2020 Anniversary Remix) [flac]
DR7 -0.24 dB -9.70 dB 3:39 11 - Don't Give Up (Giuseppe Ottaviani Remix) [flac]
DR7 -0.36 dB -9.36 dB 4:19 12 - Saltwater (AVIRA Remix) [flac]
----------------------------------------------------------------------------------------------
Number of files:    12
Official DR value:  DR7

Sampling rate: 44100 Hz
Average bitrate: 846kbs
Bits per sample: 16 bit

CD2
----------------------------------------------------------------------------------------------
Analyzed: Behind The Sun (2020 Anniversary Mixes) /  Artist: Chicane
----------------------------------------------------------------------------------------------
DR Peak RMS Duration Title [codec]
----------------------------------------------------------------------------------------------
DR9 -0.00 dB -13.66 dB 3:33 01 - Overture [flac]
DR8 -0.00 dB -11.94 dB 7:00 02 - Low Sun [flac]
DR9 -0.00 dB -11.19 dB 5:08 03 - No Ordinary Morning [flac]
DR6 -0.00 dB -8.81 dB 9:57 04 - Saltwater [flac]
DR7 -0.00 dB -9.53 dB 9:58 05 - Halcyon [flac]
DR6 -0.00 dB -8.85 dB 4:54 06 - Autumn Tactics [flac]
DR7 -0.00 dB -8.89 dB 4:36 07 - Overlap [flac]
DR6 -0.00 dB -8.79 dB 8:35 08 - Don't Give Up [flac]
DR9 -0.18 dB -14.06 dB 6:50 09 - Saltwater (The Thrillseekers Remix) [flac]
DR7 -0.00 dB -8.78 dB 6:34 10 - Andromeda [flac]
DR4 -0.00 dB -9.64 dB 9:01 11 - Don't Give Up (Reboot) [flac]
----------------------------------------------------------------------------------------------
Number of files:    11
Official DR value:  DR7

Sampling rate: 44100 Hz
Average bitrate: 871kbs
Bits per sample: 16 bit


Similar Torrents
Type Name Size Added S L
Audio Chicane - Discography (1997-2018) (320) [DJ]
1.70 GB 2020-05-12 13:31:49 78 136




Trackers:
udp://tracker.piratepublic.com:1337/announce

This Torrent also has backup trackers
URLSeedersLeechersCompleted
http://p4p.arenabg.com:1337/announce000
http://explodie.org:6969/announce2589

Chicane - Behind The Sun (2020 Anniversary Mixes) (2020) Flac
Files
cover.jpg (189.56 kB)
Disc 01/01 - Overture (2020 Anniversary Remix).flac (12.44 MB)
Disc 01/02 - Low Sun (Blood Groove & Kikis Remix).flac (19.92 MB)
Disc 01/03 - No Ordinary Morning (The Thrillseekers Remix).flac (29.01 MB)
Disc 01/04 - Saltwater (Chicane Slow Tide Remix).flac (22.34 MB)
Disc 01/05 - Halcyon (2020 Anniversary Remix).flac (22.48 MB)
Disc 01/06 - Autumn Tactics (Jody Wisternoff Remix).flac (26.13 MB)
Disc 01/07 - Overlap (2020 Anniversary Remix).flac (17.70 MB)
Disc 01/08 - Don't Give Up (Chicane Lockdown Remix).flac (22.16 MB)
Disc 01/09 - Saltwater (Kevin de Vries Remix).flac (24.70 MB)
Disc 01/10 - Andromeda (2020 Anniversary Remix).flac (24.22 MB)
Disc 01/11 - Don't Give Up (Giuseppe Ottaviani Remix).flac (25.80 MB)
Disc 01/12 - Saltwater (AVIRA Remix).flac (27.22 MB)
Disc 01/dr14.txt (1.68 kB)
Disc 02/01 - Overture.flac (20.08 MB)
Disc 02/02 - Low Sun.flac (41.63 MB)
Disc 02/03 - No Ordinary Morning.flac (33.87 MB)
Disc 02/04 - Saltwater.flac (67.57 MB)
Disc 02/05 - Halcyon.flac (61.14 MB)
Disc 02/06 - Autumn Tactics.flac (32.33 MB)
Disc 02/07 - Overlap.flac (31.45 MB)
Disc 02/08 - Don't Give Up.flac (54.01 MB)
Disc 02/09 - Saltwater (The Thrillseekers Remix).flac (41.75 MB)
Disc 02/10 - Andromeda.flac (36.42 MB)
Disc 02/11 - Don't Give Up (Reboot).flac (56.86 MB)
Disc 02/dr14.txt (1.38 kB)


Comments:

<< Previous      Next >>
1 - 1

[Report] Posted: 23-05-2020 at 00:30:13
Mr. Blue



Thank You

1 - 1
<< Previous      Next >>


Powered by TT | Page Generated In 7.351455 secs.
| RSS Feed | Feed Info