Xvid/x264



Non-English

Site Friends
      ETTV

      Torrentz2

      Free Courses Online

      Nulled Premium




Ishq Kills (2020) Hindi S01 Complete UNTOUCHED ULLU WEB-DL x264 AAC 850MB - MovCr


Download torrent:      
Info Hash:  8d0ca486531f985bdd84eff125ed25dd3a921554
Category:  Movies > Non-English
Torrent language:  Hindi  
Seeds | Leech:  323 | 127
Complete:   5,507
Health:   
Total Size:  883.66 MB
Added By:        kingmaker
Date Added:  22-05-2020 01:15:pm | Last Edit:  28-05-2020 11:01:am

Un système d'onglets en javascript
Description Trackers Files 6 Comments 1 Download Update Seeds & Leechers Stat
Visit Us @ https://MovCr.to








Ishq Kills (2020) Hindi S01 Complete UNTOUCHED ULLU WEB-DL x264 AAC 850MB - MovCr




Plot :

A phenomenal love story on dissension between Love and Traditions ....Sentiments and Principals.. What will she choose when her own family are on a quest to ruin it all ? Her fondness or their Enmity ?? ISHQ KILLS - GAME OF LOVE !





Video
ID                                       : 1
Format                                   : AVC
Format/Info                              : Advanced Video Codec
Format profile                           : [email protected]
Format settings                          : 1 Ref Frames
Format settings, CABAC                   : No
Format settings, Reference frames        : 1 frame
Codec ID                                 : V_MPEG4/ISO/AVC
Duration                                 : 23 min 22 s
Bit rate                                 : 1 443 kb/s
Width                                    : 1 280 pixels
Height                                   : 720 pixels
Display aspect ratio                     : 16:9
Frame rate mode                          : Constant
Frame rate                               : 25.000 FPS
Color space                              : YUV
Chroma subsampling                       : 4:2:0
Bit depth                                : 8 bits
Scan type                                : Progressive
Bits/(Pixel*Frame)                       : 0.063
Stream size                              : 241 MiB (92%)
Title                                    : www.MovCr.to
Language                                 : Hindi
Default                                  : Yes
Forced                                   : No

Audio
ID                                       : 2
Format                                   : AAC LC
Format/Info                              : Advanced Audio Codec Low Complexity
Codec ID                                 : A_AAC-2
Duration                                 : 23 min 22 s
Bit rate                                 : 128 kb/s
Channel(s)                               : 2 channels
Channel layout                           : L R
Sampling rate                            : 48.0 kHz
Frame rate                               : 46.875 FPS (1024 SPF)
Compression mode                         : Lossy
Stream size                              : 21.4 MiB (8%)
Title                                    : www.MovCr.to
Language                                 : Hindi
Default                                  : Yes
Forced                                   : No






















Trackers:
http://tracker.nyap2p.com:8080/announce

This Torrent also has backup trackers
URLSeedersLeechersCompleted
http://tracker.nyap2p.com:8080/announce7031709
http://h4.trakx.nibba.trade:80/announce932,104
https://tracker.nitrix.me:443/announce1322,555
https://t1.leech.ie:443/announce000

Ishq Kills (2020) Hindi S01 Complete UNTOUCHED ULLU WEB-DL x264 AAC 850MB - MovCr
Files
Torrent Downloaded From www.MovCr.to.txt (218.00 B)
www.MovCr.to - Ep01.mkv (262.92 MB)
www.MovCr.to - Ep02.mkv (191.42 MB)
www.MovCr.to - Ep03.mkv (173.87 MB)
www.MovCr.to - Ep04.mkv (255.45 MB)
www.MovCr.to.url (119.00 B)


Comments:

<< Previous      Next >>
1 - 1

[Report] Posted: 23-05-2020 at 07:47:19
nanchy



THANK U

1 - 1
<< Previous      Next >>


Powered by TT | Page Generated In 6.658132 secs.
| RSS Feed | Feed Info