Xvid/x264



Non-English

Site Friends
      ETTV

      Torrentz2

      Free Courses Online

      Nulled Premium




The Banker (2020) (1080p ATVP Webrip x265 10bit EAC3 5.1 - r0b0t) [TAoE].mkv


Download torrent:      
Info Hash:  70fba4ad02b551c59a664a4f28187d8a6502e142
Category:  Movies > HEVC/x265
Torrent language:  English  
Seeds | Leech:  174 | 125
Complete:   485
Health:   
Total Size:  2.91 GB
Added By:        Goki Site FriendSuperman
Date Added:  22-05-2020 08:01:am | Last Edit:  22-05-2020 12:30:pm

IMDB
The Banker
The Banker Released 20 Mar 2020

Genre Drama

Director George Nolfi

Writer Niceole R. Levy (screenplay by), George Nolfi (screenplay by), David Lewis Smith (screenplay by), Stan Younger (screenplay by), David Lewis Smith (story by), Stan Younger (story by), Brad Kane (story by)

Actors Anthony Mackie, Samuel L. Jackson, Nicholas Hoult, Nia Long

Plot In the 1960s two African-American entrepreneurs hire a working-class white man to pretend to be the head of their business empire while they pose as a janitor and chauffeur.

Link http://www.imdb.com/title/tt6285944

Last Updated 25-05-2020 22:09:12
7.2

Votes 8,957

Un système d'onglets en javascript
Description Trackers Files 1 Comments 1 Download Update Seeds & Leechers Stat





The Banker (2020) IMDB







Source
The.Banker.2020.1080p.WEB.H264-SECRECY

Media Information
General
Unique ID                      : 324887862502516475028237772737713011 (0x3E9235553BE01AC64ACAA1C4539373)
Complete name                  : The Banker (2020) (1080p ATVP Webrip x265 10bit EAC3 5.1 - r0b0t) [TAoE].mkv
Format                         : Matroska
Format version                 : Version 4 / Version 2
File size                      : 2.91 GiB
Duration                       : 2 h 0 min
Overall bit rate               : 3 464 kb/s
Writing application            : Lavf58.29.100
Writing library                : Lavf58.29.100 / Lavf58.29.100
ErrorDetectionType             : Per level 1

Video
ID                             : 1
Format                         : HEVC
Format/Info                    : High Efficiency Video Coding
Format profile                 : Main [email protected]@Main
Codec ID                       : V_MPEGH/ISO/HEVC
Duration                       : 2 h 0 min
Bit rate                       : 2 627 kb/s
Width                          : 1 918 pixels
Height                         : 802 pixels
Display aspect ratio           : 2.40:1
Frame rate mode                : Constant
Frame rate                     : 23.976 (24000/1001) FPS
Color space                    : YUV
Chroma subsampling             : 4:2:0
Bit depth                      : 10 bits
Bits/(Pixel*Frame)             : 0.071
Stream size                    : 2.21 GiB (76%)
Title                          : Encoded by r0b0t for TAoE using Shinguru V1.2
Writing library                : x265 3.2+35-acc5d16999e2:[Windows][GCC 9.2.1][64 bit] 10bit
Encoding settings              : cpuid=1049583 / frame-threads=5 / numa-pools=16,16 / wpp / no-pmode / no-pme / no-psnr / no-ssim / log-level=2 / input-csp=1 / input-res=1918x802 / interlace=0 / total-frames=0 / level-idc=0 / high-tier=1 / uhd-bd=0 / ref=4 / no-allow-non-conformance / no-repeat-headers / annexb / no-aud / no-hrd / info / hash=0 / no-temporal-layers / open-gop / min-keyint=23 / keyint=250 / gop-lookahead=0 / bframes=8 / b-adapt=2 / b-pyramid / bframe-bias=0 / rc-lookahead=80 / lookahead-slices=4 / scenecut=40 / hist-scenecut=0 / radl=0 / no-splice / no-intra-refresh / ctu=64 / min-cu-size=8 / no-rect / no-amp / max-tu-size=32 / tu-inter-depth=1 / tu-intra-depth=1 / limit-tu=0 / rdoq-level=2 / dynamic-rd=0.00 / no-ssim-rd / signhide / no-tskip / nr-intra=0 / nr-inter=0 / no-constrained-intra / no-strong-intra-smoothing / max-merge=3 / limit-refs=3 / limit-modes / me=3 / subme=5 / merange=57 / temporal-mvp / no-frame-dup / no-hme / weightp / no-weightb / no-analyze-src-pics / deblock=0:0 / sao / no-sao-non-deblock / rd=4 / selective-sao=4 / no-early-skip / rskip / no-fast-intra / no-tskip-fast / no-cu-lossless / no-b-intra / no-splitrd-skip / rdpenalty=0 / psy-rd=1.30 / psy-rdoq=2.00 / no-rd-refine / no-lossless / cbqpoffs=0 / crqpoffs=0 / rc=crf / crf=20.0 / qcomp=0.60 / qpstep=4 / stats-write=0 / stats-read=0 / ipratio=1.40 / pbratio=1.30 / aq-mode=4 / aq-strength=1.10 / cutree / zone-count=0 / no-strict-cbr / qg-size=32 / no-rc-grain / qpmax=69 / qpmin=0 / no-const-vbv / sar=1 / overscan=0 / videoformat=5 / range=0 / colorprim=2 / transfer=2 / colormatrix=2 / chromaloc=0 / display-window=0 / cll=0,0 / min-luma=0 / max-luma=1023 / log2-max-poc-lsb=8 / vui-timing-info / vui-hrd-info / slices=1 / no-opt-qp-pps / no-opt-ref-list-length-pps / no-multi-pass-opt-rps / scenecut-bias=0.05 / hist-threshold=0.01 / no-opt-cu-delta-qp / no-aq-motion / no-hdr10 / no-hdr10-opt / no-dhdr10-opt / no-idr-recovery-sei / analysis-reuse-level=0 / analysis-save-reuse-level=0 / analysis-load-reuse-level=0 / scale-factor=0 / refine-intra=0 / refine-inter=0 / refine-mv=1 / refine-ctu-distortion=0 / no-limit-sao / ctu-info=0 / no-lowpass-dct / refine-analysis-type=0 / copy-pic=1 / max-ausize-factor=1.0 / no-dynamic-refine / no-single-sei / no-hevc-aq / no-svt / no-field / qp-adaptation-range=1.00 / no-scenecut-aware-qpconformance-window-offsets / right=0 / bottom=0
Default                        : Yes
Forced                         : No
Color range                    : Limited
Statistics Tags Issue          : mkvpropedit v28.2.0 ('The Awakening') 64-bit 2020-05-22 01:23:30 / Lavf58.29.100
FromStats_BitRate              : 2687011
FromStats_Duration             : 02:00:25.760708333
FromStats_FrameCount           : 173245
FromStats_StreamSize           : 2426962270

Audio
ID                             : 2
Format                         : E-AC-3
Format/Info                    : Enhanced Audio Coding 3
Format settings, Endianness    : Big
Codec ID                       : A_EAC3
Duration                       : 2 h 0 min
Bit rate mode                  : Constant
Bit rate                       : 768 kb/s
Channel(s)                     : 6 channels
Channel positions              : Front: L C R, Side: L R, LFE
Sampling rate                  : 48.0 kHz
Frame rate                     : 187.500 FPS (256 spf)
Bit depth                      : 32 bits
Compression mode               : Lossy
Stream size                    : 662 MiB (22%)
Language                       : English
Default                        : Yes
Forced                         : No
Statistics Tags Issue          : mkvpropedit v28.2.0 ('The Awakening') 64-bit 2020-05-22 01:23:30 / Lavf58.29.100
FromStats_BitRate              : 768003
FromStats_Duration             : 02:00:25.760000000
FromStats_FrameCount           : 225806
FromStats_StreamSize           : 693676032

Text #1
ID                             : 3
Format                         : UTF-8
Codec ID                       : S_TEXT/UTF8
Codec ID/Info                  : UTF-8 Plain Text
Title                          : English
Language                       : English
Default                        : No
Forced                         : No
Statistics Tags Issue          : mkvpropedit v28.2.0 ('The Awakening') 64-bit 2020-05-22 01:23:30 / Lavf58.29.100
FromStats_BitRate              : 74
FromStats_Duration             : 01:53:18.214000000
FromStats_FrameCount           : 1751
FromStats_StreamSize           : 62997

Text #2
ID                             : 4
Format                         : UTF-8
Codec ID                       : S_TEXT/UTF8
Codec ID/Info                  : UTF-8 Plain Text
Title                          : English [SDH]
Language                       : English
Default                        : No
Forced                         : No
Statistics Tags Issue          : mkvpropedit v28.2.0 ('The Awakening') 64-bit 2020-05-22 01:23:30 / Lavf58.29.100
FromStats_BitRate              : 75
FromStats_Duration             : 01:56:07.300000000
FromStats_FrameCount           : 1848
FromStats_StreamSize           : 65981

Text #3
ID                             : 5
Format                         : UTF-8
Codec ID                       : S_TEXT/UTF8
Codec ID/Info                  : UTF-8 Plain Text
Title                          : Arabic
Language                       : Arabic
Default                        : No
Forced                         : No
Statistics Tags Issue          : mkvpropedit v28.2.0 ('The Awakening') 64-bit 2020-05-22 01:23:30 / Lavf58.29.100
FromStats_BitRate              : 114
FromStats_Duration             : 02:00:16.758000000
FromStats_FrameCount           : 1834
FromStats_StreamSize           : 103135

Text #4
ID                             : 6
Format                         : UTF-8
Codec ID                       : S_TEXT/UTF8
Codec ID/Info                  : UTF-8 Plain Text
Title                          : Bulgarian
Language                       : Bulgarian
Default                        : No
Forced                         : No
Statistics Tags Issue          : mkvpropedit v28.2.0 ('The Awakening') 64-bit 2020-05-22 01:23:30 / Lavf58.29.100
FromStats_BitRate              : 102
FromStats_Duration             : 02:00:16.758000000
FromStats_FrameCount           : 1833
FromStats_StreamSize           : 92640

Text #5
ID                             : 7
Format                         : UTF-8
Codec ID                       : S_TEXT/UTF8
Codec ID/Info                  : UTF-8 Plain Text
Title                          : Czech
Language                       : Czech
Default                        : No
Forced                         : No
Statistics Tags Issue          : mkvpropedit v28.2.0 ('The Awakening') 64-bit 2020-05-22 01:23:30 / Lavf58.29.100
FromStats_BitRate              : 65
FromStats_Duration             : 02:00:16.758000000
FromStats_FrameCount           : 1815
FromStats_StreamSize           : 58817

Text #6
ID                             : 8
Format                         : UTF-8
Codec ID                       : S_TEXT/UTF8
Codec ID/Info                  : UTF-8 Plain Text
Title                          : Danish
Language                       : Danish
Default                        : No
Forced                         : No
Statistics Tags Issue          : mkvpropedit v28.2.0 ('The Awakening') 64-bit 2020-05-22 01:23:30 / Lavf58.29.100
FromStats_BitRate              : 70
FromStats_Duration             : 02:00:16.758000000
FromStats_FrameCount           : 1811
FromStats_StreamSize           : 63641

Text #7
ID                             : 9
Format                         : UTF-8
Codec ID                       : S_TEXT/UTF8
Codec ID/Info                  : UTF-8 Plain Text
Title                          : Dutch
Language                       : Dutch
Default                        : No
Forced                         : No
Statistics Tags Issue          : mkvpropedit v28.2.0 ('The Awakening') 64-bit 2020-05-22 01:23:30 / Lavf58.29.100
FromStats_BitRate              : 61
FromStats_Duration             : 02:00:16.758000000
FromStats_FrameCount           : 1768
FromStats_StreamSize           : 55629

Text #8
ID                             : 10
Format                         : UTF-8
Codec ID                       : S_TEXT/UTF8
Codec ID/Info                  : UTF-8 Plain Text
Title                          : Estonian
Language                       : Estonian
Default                        : No
Forced                         : No
Statistics Tags Issue          : mkvpropedit v28.2.0 ('The Awakening') 64-bit 2020-05-22 01:23:30 / Lavf58.29.100
FromStats_BitRate              : 64
FromStats_Duration             : 02:00:16.758000000
FromStats_FrameCount           : 1826
FromStats_StreamSize           : 58239

Text #9
ID                             : 11
Format                         : UTF-8
Codec ID                       : S_TEXT/UTF8
Codec ID/Info                  : UTF-8 Plain Text
Title                          : Finnish
Language                       : Finnish
Default                        : No
Forced                         : No
Statistics Tags Issue          : mkvpropedit v28.2.0 ('The Awakening') 64-bit 2020-05-22 01:23:30 / Lavf58.29.100
FromStats_BitRate              : 56
FromStats_Duration             : 02:00:16.758000000
FromStats_FrameCount           : 1808
FromStats_StreamSize           : 51411

Text #10
ID                             : 12
Format                         : UTF-8
Codec ID                       : S_TEXT/UTF8
Codec ID/Info                  : UTF-8 Plain Text
Title                          : French
Language                       : French
Default                        : No
Forced                         : No
Statistics Tags Issue          : mkvpropedit v28.2.0 ('The Awakening') 64-bit 2020-05-22 01:23:30 / Lavf58.29.100
FromStats_BitRate              : 64
FromStats_Duration             : 02:00:15.424000000
FromStats_FrameCount           : 1654
FromStats_StreamSize           : 57777

Text #11
ID                             : 13
Format                         : UTF-8
Codec ID                       : S_TEXT/UTF8
Codec ID/Info                  : UTF-8 Plain Text
Title                          : French Canadian
Language                       : French
Default                        : No
Forced                         : No
Statistics Tags Issue          : mkvpropedit v28.2.0 ('The Awakening') 64-bit 2020-05-22 01:23:30 / Lavf58.29.100
FromStats_BitRate              : 64
FromStats_Duration             : 02:00:15.424000000
FromStats_FrameCount           : 1655
FromStats_StreamSize           : 57796

Text #12
ID                             : 14
Format                         : UTF-8
Codec ID                       : S_TEXT/UTF8
Codec ID/Info                  : UTF-8 Plain Text
Title                          : German
Language                       : German
Default                        : No
Forced                         : No
Statistics Tags Issue          : mkvpropedit v28.2.0 ('The Awakening') 64-bit 2020-05-22 01:23:30 / Lavf58.29.100
FromStats_BitRate              : 72
FromStats_Duration             : 02:00:14.256000000
FromStats_FrameCount           : 1465
FromStats_StreamSize           : 64931

Text #13
ID                             : 15
Format                         : UTF-8
Codec ID                       : S_TEXT/UTF8
Codec ID/Info                  : UTF-8 Plain Text
Title                          : Greek
Language                       : Greek
Default                        : No
Forced                         : No
Statistics Tags Issue          : mkvpropedit v28.2.0 ('The Awakening') 64-bit 2020-05-22 01:23:30 / Lavf58.29.100
FromStats_BitRate              : 114
FromStats_Duration             : 02:00:16.758000000
FromStats_FrameCount           : 1830
FromStats_StreamSize           : 103681

Text #14
ID                             : 16
Format                         : UTF-8
Codec ID                       : S_TEXT/UTF8
Codec ID/Info                  : UTF-8 Plain Text
Title                          : Hebrew
Language                       : Hebrew
Default                        : No
Forced                         : No
Statistics Tags Issue          : mkvpropedit v28.2.0 ('The Awakening') 64-bit 2020-05-22 01:23:30 / Lavf58.29.100
FromStats_BitRate              : 96
FromStats_Duration             : 02:00:16.758000000
FromStats_FrameCount           : 1832
FromStats_StreamSize           : 87370

Text #15
ID                             : 17
Format                         : UTF-8
Codec ID                       : S_TEXT/UTF8
Codec ID/Info                  : UTF-8 Plain Text
Title                          : Hindi
Language                       : Hindi
Default                        : No
Forced                         : No
Statistics Tags Issue          : mkvpropedit v28.2.0 ('The Awakening') 64-bit 2020-05-22 01:23:30 / Lavf58.29.100
FromStats_BitRate              : 183
FromStats_Duration             : 02:00:16.758000000
FromStats_FrameCount           : 1833
FromStats_StreamSize           : 165471

Text #16
ID                             : 18
Format                         : UTF-8
Codec ID                       : S_TEXT/UTF8
Codec ID/Info                  : UTF-8 Plain Text
Title                          : Hungarian
Language                       : Hungarian
Default                        : No
Forced                         : No
Statistics Tags Issue          : mkvpropedit v28.2.0 ('The Awakening') 64-bit 2020-05-22 01:23:30 / Lavf58.29.100
FromStats_BitRate              : 66
FromStats_Duration             : 02:00:16.758000000
FromStats_FrameCount           : 1826
FromStats_StreamSize           : 60076

Text #17
ID                             : 19
Format                         : UTF-8
Codec ID                       : S_TEXT/UTF8
Codec ID/Info                  : UTF-8 Plain Text
Title                          : Indonesian
Language                       : Indonesian
Default                        : No
Forced                         : No
Statistics Tags Issue          : mkvpropedit v28.2.0 ('The Awakening') 64-bit 2020-05-22 01:23:30 / Lavf58.29.100
FromStats_BitRate              : 66
FromStats_Duration             : 02:00:16.758000000
FromStats_FrameCount           : 1822
FromStats_StreamSize           : 59904

Text #18
ID                             : 20
Format                         : UTF-8
Codec ID                       : S_TEXT/UTF8
Codec ID/Info                  : UTF-8 Plain Text
Title                          : Italian
Language                       : Italian
Default                        : No
Forced                         : No
Statistics Tags Issue          : mkvpropedit v28.2.0 ('The Awakening') 64-bit 2020-05-22 01:23:30 / Lavf58.29.100
FromStats_BitRate              : 73
FromStats_Duration             : 02:00:17.843000000
FromStats_FrameCount           : 1624
FromStats_StreamSize           : 66441

Text #19
ID                             : 21
Format                         : UTF-8
Codec ID                       : S_TEXT/UTF8
Codec ID/Info                  : UTF-8 Plain Text
Title                          : Japanese
Language                       : Japanese
Default                        : No
Forced                         : No
Statistics Tags Issue          : mkvpropedit v28.2.0 ('The Awakening') 64-bit 2020-05-22 01:23:30 / Lavf58.29.100
FromStats_BitRate              : 58
FromStats_Duration             : 02:00:14.631000000
FromStats_FrameCount           : 1655
FromStats_StreamSize           : 52375

Text #20
ID                             : 22
Format                         : UTF-8
Codec ID                       : S_TEXT/UTF8
Codec ID/Info                  : UTF-8 Plain Text
Title                          : Lithuanian
Language                       : Lithuanian
Default                        : No
Forced                         : No
Statistics Tags Issue          : mkvpropedit v28.2.0 ('The Awakening') 64-bit 2020-05-22 01:23:30 / Lavf58.29.100
FromStats_BitRate              : 74
FromStats_Duration             : 02:00:16.758000000
FromStats_FrameCount           : 1833
FromStats_StreamSize           : 67537

Text #21
ID                             : 23
Format                         : UTF-8
Codec ID                       : S_TEXT/UTF8
Codec ID/Info                  : UTF-8 Plain Text
Title                          : Latvian
Language                       : Latvian
Default                        : No
Forced                         : No
Statistics Tags Issue          : mkvpropedit v28.2.0 ('The Awakening') 64-bit 2020-05-22 01:23:30 / Lavf58.29.100
FromStats_BitRate              : 72
FromStats_Duration             : 02:00:16.758000000
FromStats_FrameCount           : 1832
FromStats_StreamSize           : 65348

Text #22
ID                             : 24
Format                         : UTF-8
Codec ID                       : S_TEXT/UTF8
Codec ID/Info                  : UTF-8 Plain Text
Title                          : Malay
Language                       : Malay
Default                        : No
Forced                         : No
Statistics Tags Issue          : mkvpropedit v28.2.0 ('The Awakening') 64-bit 2020-05-22 01:23:30 / Lavf58.29.100
FromStats_BitRate              : 73
FromStats_Duration             : 02:00:16.758000000
FromStats_FrameCount           : 1813
FromStats_StreamSize           : 66090

Text #23
ID                             : 25
Format                         : UTF-8
Codec ID                       : S_TEXT/UTF8
Codec ID/Info                  : UTF-8 Plain Text
Title                          : Simplified
Language                       : Chinese
Default                        : No
Forced                         : No
Statistics Tags Issue          : mkvpropedit v28.2.0 ('The Awakening') 64-bit 2020-05-22 01:23:30 / Lavf58.29.100
FromStats_BitRate              : 64
FromStats_Duration             : 02:00:16.758000000
FromStats_FrameCount           : 1835
FromStats_StreamSize           : 58395

Text #24
ID                             : 26
Format                         : UTF-8
Codec ID                       : S_TEXT/UTF8
Codec ID/Info                  : UTF-8 Plain Text
Title                          : Traditional
Language                       : Chinese
Default                        : No
Forced                         : No
Statistics Tags Issue          : mkvpropedit v28.2.0 ('The Awakening') 64-bit 2020-05-22 01:23:30 / Lavf58.29.100
FromStats_BitRate              : 63
FromStats_Duration             : 02:00:16.758000000
FromStats_FrameCount           : 1835
FromStats_StreamSize           : 57056

Text #25
ID                             : 27
Format                         : UTF-8
Codec ID                       : S_TEXT/UTF8
Codec ID/Info                  : UTF-8 Plain Text
Title                          : (Yue Chinese)
Language                       : Chinese
Default                        : No
Forced                         : No
Statistics Tags Issue          : mkvpropedit v28.2.0 ('The Awakening') 64-bit 2020-05-22 01:23:30 / Lavf58.29.100
FromStats_BitRate              : 66
FromStats_Duration             : 02:00:16.758000000
FromStats_FrameCount           : 1835
FromStats_StreamSize           : 59713

Text #26
ID                             : 28
Format                         : UTF-8
Codec ID                       : S_TEXT/UTF8
Codec ID/Info                  : UTF-8 Plain Text
Title                          : Norwegian
Language                       : Norwegian
Default                        : No
Forced                         : No
Statistics Tags Issue          : mkvpropedit v28.2.0 ('The Awakening') 64-bit 2020-05-22 01:23:30 / Lavf58.29.100
FromStats_BitRate              : 67
FromStats_Duration             : 02:00:16.758000000
FromStats_FrameCount           : 1817
FromStats_StreamSize           : 60604

Text #27
ID                             : 29
Format                         : UTF-8
Codec ID                       : S_TEXT/UTF8
Codec ID/Info                  : UTF-8 Plain Text
Title                          : Polish
Language                       : Polish
Default                        : No
Forced                         : No
Statistics Tags Issue          : mkvpropedit v28.2.0 ('The Awakening') 64-bit 2020-05-22 01:23:30 / Lavf58.29.100
FromStats_BitRate              : 62
FromStats_Duration             : 02:00:16.758000000
FromStats_FrameCount           : 1821
FromStats_StreamSize           : 56160

Text #28
ID                             : 30
Format                         : UTF-8
Codec ID                       : S_TEXT/UTF8
Codec ID/Info                  : UTF-8 Plain Text
Title                          : Portuguese
Language                       : Portuguese
Default                        : No
Forced                         : No
Statistics Tags Issue          : mkvpropedit v28.2.0 ('The Awakening') 64-bit 2020-05-22 01:23:30 / Lavf58.29.100
FromStats_BitRate              : 75
FromStats_Duration             : 02:00:16.758000000
FromStats_FrameCount           : 1813
FromStats_StreamSize           : 67793

Text #29
ID                             : 31
Format                         : UTF-8
Codec ID                       : S_TEXT/UTF8
Codec ID/Info                  : UTF-8 Plain Text
Title                          : Brazilian Portuguese
Language                       : Portuguese
Default                        : No
Forced                         : No
Statistics Tags Issue          : mkvpropedit v28.2.0 ('The Awakening') 64-bit 2020-05-22 01:23:30 / Lavf58.29.100
FromStats_BitRate              : 68
FromStats_Duration             : 02:00:16.758000000
FromStats_FrameCount           : 1815
FromStats_StreamSize           : 61528

Text #30
ID                             : 32
Format                         : UTF-8
Codec ID                       : S_TEXT/UTF8
Codec ID/Info                  : UTF-8 Plain Text
Title                          : Russian
Language                       : Russian
Default                        : No
Forced                         : No
Statistics Tags Issue          : mkvpropedit v28.2.0 ('The Awakening') 64-bit 2020-05-22 01:23:30 / Lavf58.29.100
FromStats_BitRate              : 109
FromStats_Duration             : 02:00:16.758000000
FromStats_FrameCount           : 1834
FromStats_StreamSize           : 98587

Text #31
ID                             : 33
Format                         : UTF-8
Codec ID                       : S_TEXT/UTF8
Codec ID/Info                  : UTF-8 Plain Text
Title                          : Slovak
Language                       : Slovak
Default                        : No
Forced                         : No
Statistics Tags Issue          : mkvpropedit v28.2.0 ('The Awakening') 64-bit 2020-05-22 01:23:30 / Lavf58.29.100
FromStats_BitRate              : 64
FromStats_Duration             : 02:00:16.758000000
FromStats_FrameCount           : 1824
FromStats_StreamSize           : 57856

Text #32
ID                             : 34
Format                         : UTF-8
Codec ID                       : S_TEXT/UTF8
Codec ID/Info                  : UTF-8 Plain Text
Title                          : Slovenian
Language                       : Slovenian
Default                        : No
Forced                         : No
Statistics Tags Issue          : mkvpropedit v28.2.0 ('The Awakening') 64-bit 2020-05-22 01:23:30 / Lavf58.29.100
FromStats_BitRate              : 55
FromStats_Duration             : 02:00:16.758000000
FromStats_FrameCount           : 1828
FromStats_StreamSize           : 49748

Text #33
ID                             : 35
Format                         : UTF-8
Codec ID                       : S_TEXT/UTF8
Codec ID/Info                  : UTF-8 Plain Text
Title                          : Spanish
Language                       : Spanish
Default                        : No
Forced                         : No
Statistics Tags Issue          : mkvpropedit v28.2.0 ('The Awakening') 64-bit 2020-05-22 01:23:30 / Lavf58.29.100
FromStats_BitRate              : 72
FromStats_Duration             : 02:00:16.758000000
FromStats_FrameCount           : 1828
FromStats_StreamSize           : 65577

Text #34
ID                             : 36
Format                         : UTF-8
Codec ID                       : S_TEXT/UTF8
Codec ID/Info                  : UTF-8 Plain Text
Title                          : European Spanish
Language                       : Spanish
Default                        : No
Forced                         : No
Statistics Tags Issue          : mkvpropedit v28.2.0 ('The Awakening') 64-bit 2020-05-22 01:23:30 / Lavf58.29.100
FromStats_BitRate              : 74
FromStats_Duration             : 02:00:12.045000000
FromStats_FrameCount           : 1959
FromStats_StreamSize           : 67283

Text #35
ID                             : 37
Format                         : UTF-8
Codec ID                       : S_TEXT/UTF8
Codec ID/Info                  : UTF-8 Plain Text
Title                          : Swedish
Language                       : Swedish
Default                        : No
Forced                         : No
Statistics Tags Issue          : mkvpropedit v28.2.0 ('The Awakening') 64-bit 2020-05-22 01:23:30 / Lavf58.29.100
FromStats_BitRate              : 70
FromStats_Duration             : 02:00:16.758000000
FromStats_FrameCount           : 1812
FromStats_StreamSize           : 63825

Text #36
ID                             : 38
Format                         : UTF-8
Codec ID                       : S_TEXT/UTF8
Codec ID/Info                  : UTF-8 Plain Text
Title                          : Tamil
Language                       : Tamil
Default                        : No
Forced                         : No
Statistics Tags Issue          : mkvpropedit v28.2.0 ('The Awakening') 64-bit 2020-05-22 01:23:30 / Lavf58.29.100
FromStats_BitRate              : 228
FromStats_Duration             : 02:00:16.758000000
FromStats_FrameCount           : 1831
FromStats_StreamSize           : 206368

Text #37
ID                             : 39
Format                         : UTF-8
Codec ID                       : S_TEXT/UTF8
Codec ID/Info                  : UTF-8 Plain Text
Title                          : Telugu
Language                       : Telugu
Default                        : No
Forced                         : No
Statistics Tags Issue          : mkvpropedit v28.2.0 ('The Awakening') 64-bit 2020-05-22 01:23:30 / Lavf58.29.100
FromStats_BitRate              : 202
FromStats_Duration             : 02:00:16.758000000
FromStats_FrameCount           : 1831
FromStats_StreamSize           : 182301

Text #38
ID                             : 40
Format                         : UTF-8
Codec ID                       : S_TEXT/UTF8
Codec ID/Info                  : UTF-8 Plain Text
Title                          : Thai
Language                       : Thai
Default                        : No
Forced                         : No
Statistics Tags Issue          : mkvpropedit v28.2.0 ('The Awakening') 64-bit 2020-05-22 01:23:30 / Lavf58.29.100
FromStats_BitRate              : 156
FromStats_Duration             : 02:00:16.758000000
FromStats_FrameCount           : 1835
FromStats_StreamSize           : 141111

Text #39
ID                             : 41
Format                         : UTF-8
Codec ID                       : S_TEXT/UTF8
Codec ID/Info                  : UTF-8 Plain Text
Title                          : Ukrainian
Language                       : Ukrainian
Default                        : No
Forced                         : No
Statistics Tags Issue          : mkvpropedit v28.2.0 ('The Awakening') 64-bit 2020-05-22 01:23:30 / Lavf58.29.100
FromStats_BitRate              : 105
FromStats_Duration             : 02:00:16.758000000
FromStats_FrameCount           : 1834
FromStats_StreamSize           : 95399

Text #40
ID                             : 42
Format                         : UTF-8
Codec ID                       : S_TEXT/UTF8
Codec ID/Info                  : UTF-8 Plain Text
Title                          : Vietnamese
Language                       : Vietnamese
Default                        : No
Forced                         : No
Statistics Tags Issue          : mkvpropedit v28.2.0 ('The Awakening') 64-bit 2020-05-22 01:23:30 / Lavf58.29.100
FromStats_BitRate              : 94
FromStats_Duration             : 02:00:16.758000000
FromStats_FrameCount           : 1830
FromStats_StreamSize           : 85659

Source Information
General
Unique ID                      : 158963653770071019848589945397603745592 (0x7797493CF6FAC0D9464A0F1D5D2C3F38)
Complete name                  : The.Banker.2020.1080p.WEB.H264-SECRECY.mkv
Format                         : Matroska
Format version                 : Version 4 / Version 2
File size                      : 9.11 GiB
Duration                       : 2 h 0 min
Overall bit rate               : 10.8 Mb/s
Encoded date                   : UTC 2020-03-20 04:16:27
Writing application            : mkvmerge v42.0.0 ('Overtime') 64-bit
Writing library                : libebml v1.3.10 + libmatroska v1.5.2

Video
ID                             : 1
Format                         : AVC
Format/Info                    : Advanced Video Codec
Format profile                 : [email protected]
Format settings, CABAC         : Yes
Format settings, ReFrames      : 5 frames
Codec ID                       : V_MPEG4/ISO/AVC
Duration                       : 2 h 0 min
Bit rate                       : 10.1 Mb/s
Width                          : 1 918 pixels
Height                         : 802 pixels
Display aspect ratio           : 2.40:1
Frame rate mode                : Constant
Frame rate                     : 23.976 (24000/1001) FPS
Color space                    : YUV
Chroma subsampling             : 4:2:0
Bit depth                      : 8 bits
Scan type                      : Progressive
Bits/(Pixel*Frame)             : 0.273
Stream size                    : 8.46 GiB (93%)
Default                        : Yes
Forced                         : No
Color range                    : Limited
Color primaries                : BT.709
Transfer characteristics       : BT.709
Matrix coefficients            : BT.709

Audio
ID                             : 2
Format                         : E-AC-3
Format/Info                    : Enhanced Audio Coding 3
Format settings, Endianness    : Big
Codec ID                       : A_EAC3
Duration                       : 2 h 0 min
Bit rate mode                  : Constant
Bit rate                       : 768 kb/s
Channel(s)                     : 6 channels
Channel positions              : Front: L C R, Side: L R, LFE
Sampling rate                  : 48.0 kHz
Frame rate                     : 187.500 FPS (256 spf)
Compression mode               : Lossy
Stream size                    : 662 MiB (7%)
Language                       : English
Default                        : Yes
Forced                         : No

Text #1
ID                             : 3
Format                         : UTF-8
Codec ID                       : S_TEXT/UTF8
Codec ID/Info                  : UTF-8 Plain Text
Duration                       : 1 h 53 min
Bit rate                       : 74 b/s
Count of elements              : 1751
Stream size                    : 61.5 KiB (0%)
Title                          : English
Language                       : English
Default                        : No
Forced                         : No

Text #2
ID                             : 4
Format                         : UTF-8
Codec ID                       : S_TEXT/UTF8
Codec ID/Info                  : UTF-8 Plain Text
Duration                       : 1 h 56 min
Bit rate                       : 75 b/s
Count of elements              : 1848
Stream size                    : 64.4 KiB (0%)
Title                          : English [SDH]
Language                       : English
Default                        : No
Forced                         : No

Text #3
ID                             : 5
Format                         : UTF-8
Codec ID                       : S_TEXT/UTF8
Codec ID/Info                  : UTF-8 Plain Text
Duration                       : 2 h 0 min
Bit rate                       : 114 b/s
Count of elements              : 1834
Stream size                    : 101 KiB (0%)
Title                          : Arabic
Language                       : Arabic
Default                        : No
Forced                         : No

Text #4
ID                             : 6
Format                         : UTF-8
Codec ID                       : S_TEXT/UTF8
Codec ID/Info                  : UTF-8 Plain Text
Duration                       : 2 h 0 min
Bit rate                       : 102 b/s
Count of elements              : 1833
Stream size                    : 90.5 KiB (0%)
Title                          : Bulgarian
Language                       : Bulgarian
Default                        : No
Forced                         : No

Text #5
ID                             : 7
Format                         : UTF-8
Codec ID                       : S_TEXT/UTF8
Codec ID/Info                  : UTF-8 Plain Text
Duration                       : 2 h 0 min
Bit rate                       : 65 b/s
Count of elements              : 1815
Stream size                    : 57.4 KiB (0%)
Title                          : Czech
Language                       : Czech
Default                        : No
Forced                         : No

Text #6
ID                             : 8
Format                         : UTF-8
Codec ID                       : S_TEXT/UTF8
Codec ID/Info                  : UTF-8 Plain Text
Duration                       : 2 h 0 min
Bit rate                       : 70 b/s
Count of elements              : 1811
Stream size                    : 62.1 KiB (0%)
Title                          : Danish
Language                       : Danish
Default                        : No
Forced                         : No

Text #7
ID                             : 9
Format                         : UTF-8
Codec ID                       : S_TEXT/UTF8
Codec ID/Info                  : UTF-8 Plain Text
Duration                       : 2 h 0 min
Bit rate                       : 61 b/s
Count of elements              : 1768
Stream size                    : 54.3 KiB (0%)
Title                          : Dutch
Language                       : Dutch
Default                        : No
Forced                         : No

Text #8
ID                             : 10
Format                         : UTF-8
Codec ID                       : S_TEXT/UTF8
Codec ID/Info                  : UTF-8 Plain Text
Duration                       : 2 h 0 min
Bit rate                       : 64 b/s
Count of elements              : 1826
Stream size                    : 56.9 KiB (0%)
Title                          : Estonian
Language                       : Estonian
Default                        : No
Forced                         : No

Text #9
ID                             : 11
Format                         : UTF-8
Codec ID                       : S_TEXT/UTF8
Codec ID/Info                  : UTF-8 Plain Text
Duration                       : 2 h 0 min
Bit rate                       : 56 b/s
Count of elements              : 1808
Stream size                    : 50.2 KiB (0%)
Title                          : Finnish
Language                       : Finnish
Default                        : No
Forced                         : No

Text #10
ID                             : 12
Format                         : UTF-8
Codec ID                       : S_TEXT/UTF8
Codec ID/Info                  : UTF-8 Plain Text
Duration                       : 2 h 0 min
Bit rate                       : 64 b/s
Count of elements              : 1654
Stream size                    : 56.4 KiB (0%)
Title                          : French
Language                       : French
Default                        : No
Forced                         : No

Text #11
ID                             : 13
Format                         : UTF-8
Codec ID                       : S_TEXT/UTF8
Codec ID/Info                  : UTF-8 Plain Text
Duration                       : 2 h 0 min
Bit rate                       : 64 b/s
Count of elements              : 1655
Stream size                    : 56.4 KiB (0%)
Title                          : French Canadian
Language                       : French
Default                        : No
Forced                         : No

Text #12
ID                             : 14
Format                         : UTF-8
Codec ID                       : S_TEXT/UTF8
Codec ID/Info                  : UTF-8 Plain Text
Duration                       : 2 h 0 min
Bit rate                       : 72 b/s
Count of elements              : 1465
Stream size                    : 63.4 KiB (0%)
Title                          : German
Language                       : German
Default                        : No
Forced                         : No

Text #13
ID                             : 15
Format                         : UTF-8
Codec ID                       : S_TEXT/UTF8
Codec ID/Info                  : UTF-8 Plain Text
Duration                       : 2 h 0 min
Bit rate                       : 114 b/s
Count of elements              : 1830
Stream size                    : 101 KiB (0%)
Title                          : Greek
Language                       : Greek
Default                        : No
Forced                         : No

Text #14
ID                             : 16
Format                         : UTF-8
Codec ID                       : S_TEXT/UTF8
Codec ID/Info                  : UTF-8 Plain Text
Duration                       : 2 h 0 min
Bit rate                       : 96 b/s
Count of elements              : 1832
Stream size                    : 85.3 KiB (0%)
Title                          : Hebrew
Language                       : Hebrew
Default                        : No
Forced                         : No

Text #15
ID                             : 17
Format                         : UTF-8
Codec ID                       : S_TEXT/UTF8
Codec ID/Info                  : UTF-8 Plain Text
Duration                       : 2 h 0 min
Bit rate                       : 183 b/s
Count of elements              : 1833
Stream size                    : 162 KiB (0%)
Title                          : Hindi
Language                       : Hindi
Default                        : No
Forced                         : No

Text #16
ID                             : 18
Format                         : UTF-8
Codec ID                       : S_TEXT/UTF8
Codec ID/Info                  : UTF-8 Plain Text
Duration                       : 2 h 0 min
Bit rate                       : 66 b/s
Count of elements              : 1826
Stream size                    : 58.7 KiB (0%)
Title                          : Hungarian
Language                       : Hungarian
Default                        : No
Forced                         : No

Text #17
ID                             : 19
Format                         : UTF-8
Codec ID                       : S_TEXT/UTF8
Codec ID/Info                  : UTF-8 Plain Text
Duration                       : 2 h 0 min
Bit rate                       : 66 b/s
Count of elements              : 1822
Stream size                    : 58.5 KiB (0%)
Title                          : Indonesian
Language                       : Indonesian
Default                        : No
Forced                         : No

Text #18
ID                             : 20
Format                         : UTF-8
Codec ID                       : S_TEXT/UTF8
Codec ID/Info                  : UTF-8 Plain Text
Duration                       : 2 h 0 min
Bit rate                       : 73 b/s
Count of elements              : 1624
Stream size                    : 64.9 KiB (0%)
Title                          : Italian
Language                       : Italian
Default                        : No
Forced                         : No

Text #19
ID                             : 21
Format                         : UTF-8
Codec ID                       : S_TEXT/UTF8
Codec ID/Info                  : UTF-8 Plain Text
Duration                       : 2 h 0 min
Bit rate                       : 58 b/s
Count of elements              : 1655
Stream size                    : 51.1 KiB (0%)
Title                          : Japanese
Language                       : Japanese
Default                        : No
Forced                         : No

Text #20
ID                             : 22
Format                         : UTF-8
Codec ID                       : S_TEXT/UTF8
Codec ID/Info                  : UTF-8 Plain Text
Duration                       : 2 h 0 min
Bit rate                       : 74 b/s
Count of elements              : 1833
Stream size                    : 66.0 KiB (0%)
Title                          : Lithuanian
Language                       : Lithuanian
Default                        : No
Forced                         : No

Text #21
ID                             : 23
Format                         : UTF-8
Codec ID                       : S_TEXT/UTF8
Codec ID/Info                  : UTF-8 Plain Text
Duration                       : 2 h 0 min
Bit rate                       : 72 b/s
Count of elements              : 1832
Stream size                    : 63.8 KiB (0%)
Title                          : Latvian
Language                       : Latvian
Default                        : No
Forced                         : No

Text #22
ID                             : 24
Format                         : UTF-8
Codec ID                       : S_TEXT/UTF8
Codec ID/Info                  : UTF-8 Plain Text
Duration                       : 2 h 0 min
Bit rate                       : 73 b/s
Count of elements              : 1813
Stream size                    : 64.5 KiB (0%)
Title                          : Malay
Language                       : Malay
Default                        : No
Forced                         : No

Text #23
ID                             : 25
Format                         : UTF-8
Codec ID                       : S_TEXT/UTF8
Codec ID/Info                  : UTF-8 Plain Text
Duration                       : 2 h 0 min
Bit rate                       : 64 b/s
Count of elements              : 1835
Stream size                    : 57.0 KiB (0%)
Title                          : Simplified
Language                       : Chinese
Default                        : No
Forced                         : No

Text #24
ID                             : 26
Format                         : UTF-8
Codec ID                       : S_TEXT/UTF8
Codec ID/Info                  : UTF-8 Plain Text
Duration                       : 2 h 0 min
Bit rate                       : 63 b/s
Count of elements              : 1835
Stream size                    : 55.7 KiB (0%)
Title                          : Traditional
Language                       : Chinese
Default                        : No
Forced                         : No

Text #25
ID                             : 27
Format                         : UTF-8
Codec ID                       : S_TEXT/UTF8
Codec ID/Info                  : UTF-8 Plain Text
Duration                       : 2 h 0 min
Bit rate                       : 66 b/s
Count of elements              : 1835
Stream size                    : 58.3 KiB (0%)
Title                          : (Yue Chinese)
Language                       : Chinese
Default                        : No
Forced                         : No

Text #26
ID                             : 28
Format                         : UTF-8
Codec ID                       : S_TEXT/UTF8
Codec ID/Info                  : UTF-8 Plain Text
Duration                       : 2 h 0 min
Bit rate                       : 67 b/s
Count of elements              : 1817
Stream size                    : 59.2 KiB (0%)
Title                          : Norwegian
Language                       : Norwegian
Default                        : No
Forced                         : No

Text #27
ID                             : 29
Format                         : UTF-8
Codec ID                       : S_TEXT/UTF8
Codec ID/Info                  : UTF-8 Plain Text
Duration                       : 2 h 0 min
Bit rate                       : 62 b/s
Count of elements              : 1821
Stream size                    : 54.8 KiB (0%)
Title                          : Polish
Language                       : Polish
Default                        : No
Forced                         : No

Text #28
ID                             : 30
Format                         : UTF-8
Codec ID                       : S_TEXT/UTF8
Codec ID/Info                  : UTF-8 Plain Text
Duration                       : 2 h 0 min
Bit rate                       : 75 b/s
Count of elements              : 1813
Stream size                    : 66.2 KiB (0%)
Title                          : Portuguese
Language                       : Portuguese
Default                        : No
Forced                         : No

Text #29
ID                             : 31
Format                         : UTF-8
Codec ID                       : S_TEXT/UTF8
Codec ID/Info                  : UTF-8 Plain Text
Duration                       : 2 h 0 min
Bit rate                       : 68 b/s
Count of elements              : 1815
Stream size                    : 60.1 KiB (0%)
Title                          : Brazilian Portuguese
Language                       : Portuguese
Default                        : No
Forced                         : No

Text #30
ID                             : 32
Format                         : UTF-8
Codec ID                       : S_TEXT/UTF8
Codec ID/Info                  : UTF-8 Plain Text
Duration                       : 2 h 0 min
Bit rate                       : 109 b/s
Count of elements              : 1834
Stream size                    : 96.3 KiB (0%)
Title                          : Russian
Language                       : Russian
Default                        : No
Forced                         : No

Text #31
ID                             : 33
Format                         : UTF-8
Codec ID                       : S_TEXT/UTF8
Codec ID/Info                  : UTF-8 Plain Text
Duration                       : 2 h 0 min
Bit rate                       : 64 b/s
Count of elements              : 1824
Stream size                    : 56.5 KiB (0%)
Title                          : Slovak
Language                       : Slovak
Default                        : No
Forced                         : No

Text #32
ID                             : 34
Format                         : UTF-8
Codec ID                       : S_TEXT/UTF8
Codec ID/Info                  : UTF-8 Plain Text
Duration                       : 2 h 0 min
Bit rate                       : 55 b/s
Count of elements              : 1828
Stream size                    : 48.6 KiB (0%)
Title                          : Slovenian
Language                       : Slovenian
Default                        : No
Forced                         : No

Text #33
ID                             : 35
Format                         : UTF-8
Codec ID                       : S_TEXT/UTF8
Codec ID/Info                  : UTF-8 Plain Text
Duration                       : 2 h 0 min
Bit rate                       : 72 b/s
Count of elements              : 1828
Stream size                    : 64.0 KiB (0%)
Title                          : Spanish
Language                       : Spanish
Default                        : No
Forced                         : No

Text #34
ID                             : 36
Format                         : UTF-8
Codec ID                       : S_TEXT/UTF8
Codec ID/Info                  : UTF-8 Plain Text
Duration                       : 2 h 0 min
Bit rate                       : 74 b/s
Count of elements              : 1959
Stream size                    : 65.7 KiB (0%)
Title                          : European Spanish
Language                       : Spanish
Default                        : No
Forced                         : No

Text #35
ID                             : 37
Format                         : UTF-8
Codec ID                       : S_TEXT/UTF8
Codec ID/Info                  : UTF-8 Plain Text
Duration                       : 2 h 0 min
Bit rate                       : 70 b/s
Count of elements              : 1812
Stream size                    : 62.3 KiB (0%)
Title                          : Swedish
Language                       : Swedish
Default                        : No
Forced                         : No

Text #36
ID                             : 38
Format                         : UTF-8
Codec ID                       : S_TEXT/UTF8
Codec ID/Info                  : UTF-8 Plain Text
Duration                       : 2 h 0 min
Bit rate                       : 228 b/s
Count of elements              : 1831
Stream size                    : 202 KiB (0%)
Title                          : Tamil
Language                       : Tamil
Default                        : No
Forced                         : No

Text #37
ID                             : 39
Format                         : UTF-8
Codec ID                       : S_TEXT/UTF8
Codec ID/Info                  : UTF-8 Plain Text
Duration                       : 2 h 0 min
Bit rate                       : 202 b/s
Count of elements              : 1831
Stream size                    : 178 KiB (0%)
Title                          : Telugu
Language                       : Telugu
Default                        : No
Forced                         : No

Text #38
ID                             : 40
Format                         : UTF-8
Codec ID                       : S_TEXT/UTF8
Codec ID/Info                  : UTF-8 Plain Text
Duration                       : 2 h 0 min
Bit rate                       : 156 b/s
Count of elements              : 1835
Stream size                    : 138 KiB (0%)
Title                          : Thai
Language                       : Thai
Default                        : No
Forced                         : No

Text #39
ID                             : 41
Format                         : UTF-8
Codec ID                       : S_TEXT/UTF8
Codec ID/Info                  : UTF-8 Plain Text
Duration                       : 2 h 0 min
Bit rate                       : 105 b/s
Count of elements              : 1834
Stream size                    : 93.2 KiB (0%)
Title                          : Ukrainian
Language                       : Ukrainian
Default                        : No
Forced                         : No

Text #40
ID                             : 42
Format                         : UTF-8
Codec ID                       : S_TEXT/UTF8
Codec ID/Info                  : UTF-8 Plain Text
Duration                       : 2 h 0 min
Bit rate                       : 94 b/s
Count of elements              : 1830
Stream size                    : 83.7 KiB (0%)
Title                          : Vietnamese
Language                       : Vietnamese
Default                        : No
Forced                         : No

Hello everyone,
We are TAoE, a small team of passionate encoders who love encoding. We try our best to provide you with high quality releases.

Requests for movies and shows are welcome.
We have a form for encode requests which can be found here
Encode requests form
submit your request and it will be added to our encoding request list
You can view our encoding request list here
Encode requests list


When or if we encode it will depend on if we can obtain a good source to encode with and
if one of the TAoE encoders chooses to encode it. Unfortunately we are not able to encode everything,
new members are welcome as that helps us encode more content!

If you would like to join TAoE submit your request here!
TAoE member applications form




.........................................................................................................................................


Similar Torrents
Type Name Size Added S L
Sports WWE Money In The Bank 2019 PPV WEB h264-HEEL [TJET...
2.75 GB 2019-05-20 09:06:22 8305 3433
Sports WWE Money In The Bank 2020 PPV WEB h264-HEEL [TJET...
1.68 GB 2020-05-11 13:09:32 3303 1906
Divx/Xvid The.Banker.2020.HDRip.XviD.AC3-EVO
1.17 GB 2020-03-20 13:46:17 3136 1957
Sports WWE Money in the Bank 2019 PPV HDTV x264-Star [TJE...
2.24 GB 2019-05-20 09:06:30 2332 1340
Dubs/Dual Audio The Bank Job 2008 BluRay Dual Audio [Hindi 2.0 + E...
1.07 GB 2019-12-11 08:53:19 2316 2534
Sports WWE Money In The Bank 2019 PPV 720p WEB h264-HEEL ...
6.88 GB 2019-05-20 09:06:24 1786 718
Sports WWE Money In The Bank 2020 PPV 720p WEB h264-HEEL ...
4.24 GB 2020-05-11 13:10:04 1323 916
Sports WWE Money In The Bank 2020 Kickoff WEB h264-HEEL [...
743.08 MB 2020-05-11 13:08:07 1159 639
Dubs/Dual Audio The Bank Job 2008 BluRay 1080p Dual Audio [Hindi 2...
2.33 GB 2019-12-11 08:59:29 896 1015
Sports WWE Money In The Bank 2020 PPV HDTV x264-Star [TJE...
1.91 GB 2020-05-11 13:10:36 848 600




Trackers:
udp://tracker.coppersurfer.tk:6969/announce

The Banker (2020) (1080p ATVP Webrip x265 10bit EAC3 5.1 - r0b0t) [TAoE].mkv
Files
The Banker (2020) (1080p ATVP Webrip x265 10bit EAC3 5.1 - r0b0t) [TAoE].mkv (2.91 GB)


Comments:

<< Previous      Next >>
1 - 1

[Report] Posted: 22-05-2020 at 21:29:54
Mekkkkk



Thx

1 - 1
<< Previous      Next >>


Powered by TT | Page Generated In 1.341728 secs.
| RSS Feed | Feed Info