Xvid/x264



Non-English

Site Friends
      ETTV

      Torrentz2

      Free Courses Online

      Nulled Premium




The Lodge 2019 BluRay 1080p Hindi English AC3 5.1 x264 ESub - mkvCinemas [Telly].mkv


Download torrent:      
Info Hash:  be18353f9c015619f99f5a73516cca4eda3cc140
Category:  Movies > Dubs/Dual Audio
Torrent language:  English  
Seeds | Leech:  103 | 70
Complete:   112
Health:   
Total Size:  3.62 GB
Added By:        mkvCinemas
Date Added:  22-05-2020 04:42:am | Last Edit:  22-05-2020 12:27:pm

Un système d'onglets en javascript
Description Trackers Files 1 Comments 0 Download Update Seeds & Leechers Stat


कोरोना से बचाव:
घर पर फिल्में देखें। घर में रहें, सुरक्षित रहें। सरकार द्वारा दिए गए सभी दिशानिर्देशों और सावधानियों का जरूर पालन करें।

Fight Corona:
Watch movies at home. Stay Home, Stay Safe. Must Follow All the guidelines and precautions advised by the Government.








********************************

The Lodge 2019 BluRay 1080p Hindi English AC3 5.1 x264 ESub - mkvCinemas [Telly]

********************************

Mediainfo:-
Format                      : Matroska
Format version              : Version 2
File size                   : 3.62 GiB
Duration                    : 1h 48mn
Overall bit rate mode       : Variable
Overall bit rate            : 4 786 Kbps

Video
ID                          : 1
Format                      : AVC
Format/Info                 : Advanced Video Codec
Format profile              : [email protected]
Format settings, CABAC      : Yes
Format settings, ReFrames   : 3 frames
Muxing mode                 : Header stripping
Codec ID                    : V_MPEG4/ISO/AVC
Duration                    : 1h 48mn
Bit rate mode               : Variable
Bit rate                    : 3 500 Kbps
Maximum bit rate            : 62.5 Mbps
Width                       : 1 920 pixels
Height                      : 1 040 pixels
Display aspect ratio        : 1.85:1
Frame rate mode             : Constant
Frame rate                  : 23.976 fps
Color space                 : YUV

Audio #1
ID                          : 2
Format                      : AC-3
Format/Info                 : Audio Coding 3
Mode extension              : CM (complete main)
Format settings, Endianness : Big
Muxing mode                 : Header stripping
Codec ID                    : A_AC3
Duration                    : 1h 48mn
Bit rate mode               : Constant
Bit rate                    : 640 Kbps
Channel(s)                  : 6 channels
Channel positions           : Front: L C R, Side: L R, LFE
Sampling rate               : 48.0 KHz
Bit depth                   : 16 bits
Compression mode            : Lossy
Stream size                 : 496 MiB (13%)
Language                    : Hindi
Default                     : Yes
Forced                      : No

Audio #2
ID                          : 3
Format                      : AC-3
Format/Info                 : Audio Coding 3
Mode extension              : CM (complete main)
Format settings, Endianness : Big
Muxing mode                 : Header stripping
Codec ID                    : A_AC3
Duration                    : 1h 48mn
Bit rate mode               : Constant
Bit rate                    : 640 Kbps
Channel(s)                  : 6 channels
Channel positions           : Front: L C R, Side: L R, LFE
Sampling rate               : 48.0 KHz
Bit depth                   : 16 bits
Compression mode            : Lossy
Stream size                 : 496 MiB (13%)
Language                    : English
Default                     : No
Forced                      : No

Text #1
ID                          : 4
Format                      : UTF-8
Codec ID                    : S_TEXT/UTF8
Codec ID/Info               : UTF-8 Plain Text
Title                       : mkvCinemas
Language                    : English
Default                     : No
Forced                      : No

Text #2
ID                          : 5
Format                      : PGS
Muxing mode                 : zlib
Codec ID                    : S_HDMV/PGS
Codec ID/Info               : The same subtitle format used on BDs/HD-DVDs
Title                       : mkvCinemas PGS
Language                    : English
Default                     : Yes
Forced                      : No

Menu
00:00:00.000                : en:Chapter 01
00:12:07.893                : en:Chapter 02
00:23:59.061                : en:Chapter 03
00:35:26.872                : en:Chapter 04
00:47:47.487                : en:Chapter 05
00:59:46.871                : en:Chapter 06
01:17:27.763                : en:Chapter 07
01:42:00.941                : en:Chapter 08



********************************

We don't add Watermark or Audio Tags.
Wherever you Share our Stuffs, Give Proper Credit to "mkvCinemas @Team Telly"
We Keep All Torrents. In case of re-seed, please pm.


********************************






********************************



********************************


Similar Torrents
Type Name Size Added S L
HD The.Lodge.2019.720p.BluRay.x264.AAC-ETRG
901.46 MB 2020-04-27 21:27:37 898 350
Divx/Xvid The.Lodge.2020.BDRip.XviD.AC3-EVO
1.45 GB 2020-04-27 17:25:26 812 361
Divx/Xvid Tales.From.The.Lodge.2019.HDRip.XviD.AC3-EVO
1.32 GB 2019-11-04 06:16:05 809 206
Dubs/Dual Audio The Lodge (2019) 720p BluRay - [Hindi + English] -...
835.91 MB 2020-05-09 06:43:44 366 418
HD The Lodge (2019) BluRay 1080p.H264 Ita Eng AC3 5.1...
2.54 GB 2020-05-14 18:54:28 289 189
Dubs/Dual Audio The Lodge 2019 BluRay 720p Hindi English AAC 5.1 x...
1.09 GB 2020-05-22 03:36:58 266 462
HEVC/x265 Tales From The Lodge 2019 1080p WEB-DL HEVC x265 B...
689.20 MB 2019-11-04 13:44:36 194 187
HD The Lodgers-Non infrangere le regole (2017).720p.H...
1.57 GB 2018-07-02 19:36:28 183 46
HD The Lodgers 2018.1080p.Bluray.X264-EVO[EtHD]
10.32 GB 2018-06-03 02:37:20 164 71
HEVC/x265 The Lodge 2019 720p BluRay HEVC x265
399.75 MB 2020-04-27 22:39:25 140 85




Trackers:
udp://tracker.coppersurfer.tk:6969/announce

The Lodge 2019 BluRay 1080p Hindi English AC3 5.1 x264 ESub - mkvCinemas [Telly].mkv
Files
The Lodge 2019 BluRay 1080p Hindi English AC3 5.1 x264 ESub - mkvCinemas [Telly].mkv (3.62 GB)


Comments:
No comments still posted

Powered by TT | Page Generated In 3.493047 secs.
| RSS Feed | Feed Info