Xvid/x264



Non-English

Site Friends
      ETTV

      Torrentz2

      Free Courses Online

      Nulled Premium




Cursed - Il maleficio (2005).720p.H264.ita.eng.Ac3-5.1.sub.ita.eng-MIRCrew


Download torrent:      
Info Hash:  9e7c4e0711e9a622675560c120da06894554ad11
Category:  Movies > HD
Torrent language:  English  
Seeds | Leech:  31 | 4
Complete:   547
Health:   
Total Size:  1.86 GB
Added By:        MIRCrewRS Site FriendSuperman
Date Added:  06-04-2020 02:36:pm | Last Edit:  09-04-2020 11:01:pm

Un système d'onglets en javascript
Description Trackers Files 4 Comments 0 Download Update Seeds & Leechers Stat
Cursed - Il maleficio (2005).720p.H264.ita.eng.Ac3-5.1.sub.ita.eng-MIRCrew


NO FOUND ONLY ORIGINAL RELEASE


My release is always in double track audio italian and Original audio
for select it use VLC or dvd player home
not use wmp

Cursed - Il maleficio (2005)

Quality MIRCrew on HD 720p da 1,8 gb







 

Titolo originale Cursed
Paese di produzione Stati Uniti d'America
Anno 2005
Durata 97 min
Genere Horror
Regia Wes Craven
Sceneggiatura Kevin Williamson
Fotografia Robert McLachlan
Montaggio Patrick Lussier, Lisa Romaniw
Effetti speciali Rick Baker (make-up) Richard Hoover (visivi)
Musiche Marco Beltrami



   Christina Ricci: Ellie
   Jesse Eisenberg: Jimmy
   Joshua Jackson: Jake
   Judy Greer: Joanie
   Mýa: Jenny Tate
   Michael Rosenbaum: Kyle
   Milo Ventimiglia: Bo
   Portia de Rossi: Zela
   Kristina Anapau: Brooke
   Shannon Elizabeth: Becky



Due amiche, Jenny Tate e Becky Morton, decidono di farsi predire il futuro dall'indovina Zela. La donna predice un grave pericolo e avvisa le ragazze di stare attente ad una bestia che le attaccherà quando sorgerà la luna; le due amiche, ovviamente, non credono ad una parola.



A werewolf loose in Los Angeles changes the lives of three young adults who, after being mauled by the beast, learn they must kill it in order to avoid becoming werewolves themselves

 















General
Unique ID                                : 296853556770434786821308359939664854354 (0xDF53EA5831293905F28B190A57A33D52)
Complete name                            : Cursed - Il maleficio (2005).720p.ita.eng.sub.ita.eng-MIRCrew\Cursed Il maleficio (2005).720p.ita.eng.sub.ita.eng-MIRCrew.mkv
Format                                   : Matroska
Format version                           : Version 2
File size                                : 1.87 GiB
Duration                                 : 1h 36mn
Overall bit rate                         : 2 755 Kbps
Movie name                               : MIRcrew
Encoded date                             : UTC 2019-11-19 04:58:13
Writing application                      : Lavf54.63.100
Writing library                          : Lavf54.63.100
COMMENT                                  : MIRCrew

Video
ID                                       : 1
Format                                   : AVC
Format/Info                              : Advanced Video Codec
Format profile                           : [email protected]
Format settings, CABAC                   : Yes
Format settings, ReFrames                : 2 frames
Codec ID                                 : V_MPEG4/ISO/AVC
Duration                                 : 1h 36mn
Bit rate                                 : 2 000 Kbps
Width                                    : 1 280 pixels
Height                                   : 720 pixels
Display aspect ratio                     : 16:9
Frame rate mode                          : Variable
Frame rate                               : 23.976 fps
Color space                              : YUV
Chroma subsampling                       : 4:2:0
Bit depth                                : 8 bits
Scan type                                : Progressive
Bits/(Pixel*Frame)                       : 0.091
Stream size                              : 1.31 GiB (70%)
Writing library                          : x264 core 130 r2273
Encoding settings                        : cabac=1 / ref=2 / deblock=1:0:0 / analyse=0x1:0x131 / me=hex / subme=7 / psy=1 / psy_rd=1.00:0.00 / mixed_ref=0 / me_range=16 / chroma_me=1 / trellis=1 / 8x8dct=0 / cqm=0 / deadzone=21,11 / fast_pskip=1 / chroma_qp_offset=-2 / threads=9 / lookahead_threads=1 / sliced_threads=0 / nr=0 / decimate=1 / interlaced=0 / bluray_compat=0 / constrained_intra=0 / bframes=3 / b_pyramid=0 / b_adapt=1 / b_bias=0 / direct=3 / weightb=1 / open_gop=0 / weightp=2 / keyint=230 / keyint_min=23 / scenecut=40 / intra_refresh=0 / rc_lookahead=40 / rc=abr / mbtree=1 / bitrate=2000 / ratetol=1.0 / qcomp=0.60 / qpmin=10 / qpmax=69 / qpstep=4 / vbv_maxrate=24000 / vbv_bufsize=24000 / nal_hrd=none / ip_ratio=1.40 / aq=1:1.00
Language                                 : Italian
Default                                  : Yes
Forced                                   : No
DURATION                                 : 01:36:58.021000000
NUMBER_OF_FRAMES                         : 139493
NUMBER_OF_BYTES                          : 1874671219
_STATISTICS_WRITING_APP                  : mkvmerge v38.0.0 ('The Silent Type') 64-bit
_STATISTICS_WRITING_DATE_UTC             : 2019-11-19 04:58:13
_STATISTICS_TAGS                         : BPS DURATION NUMBER_OF_FRAMES NUMBER_OF_BYTES

Audio #1
ID                                       : 2
Format                                   : AC-3
Format/Info                              : Audio Coding 3
Mode extension                           : CM (complete main)
Codec ID                                 : A_AC3
Duration                                 : 1h 36mn
Bit rate mode                            : Constant
Bit rate                                 : 384 Kbps
Channel(s)                               : 6 channels
Channel positions                        : Front: L C R, Side: L R, LFE
Sampling rate                            : 48.0 KHz
Bit depth                                : 16 bits
Compression mode                         : Lossy
Delay relative to video                  : 1mn 5s
Stream size                              : 266 MiB (14%)
Ita Ac3 5.1
Language                                 : Italian
Default                                  : Yes
Forced                                   : No
DURATION                                 : 01:36:58.133000000
NUMBER_OF_FRAMES                         : 272725
NUMBER_OF_BYTES                          : 162908716
_STATISTICS_WRITING_APP                  : mkvmerge v38.0.0 ('The Silent Type') 64-bit
_STATISTICS_WRITING_DATE_UTC             : 2019-11-19 04:58:13
_STATISTICS_TAGS                         : BPS DURATION NUMBER_OF_FRAMES NUMBER_OF_BYTES

Audio #2
ID                                       : 3
Format                                   : AC-3
Format/Info                              : Audio Coding 3
Mode extension                           : CM (complete main)
Codec ID                                 : A_AC3
Duration                                 : 1h 36mn
Bit rate mode                            : Constant
Bit rate                                 : 384 Kbps
Channel(s)                               : 6 channels
Channel positions                        : Front: L C R, Side: L R, LFE
Sampling rate                            : 48.0 KHz
Bit depth                                : 16 bits
Compression mode                         : Lossy
Delay relative to video                  : 1mn 5s
Stream size                              : 266 MiB (14%)
Eng Ac3  5.1
Language                                 : English
Default                                  : No
Forced                                   : No
DURATION                                 : 01:36:58.090000000
NUMBER_OF_FRAMES                         : 272723
NUMBER_OF_BYTES                          : 162907498
_STATISTICS_WRITING_APP                  : mkvmerge v38.0.0 ('The Silent Type') 64-bit
_STATISTICS_WRITING_DATE_UTC             : 2019-11-19 04:58:13
_STATISTICS_TAGS                         : BPS DURATION NUMBER_OF_FRAMES NUMBER_OF_BYTES

Menu
00:00:00.000                             : :00:00:00.000
00:07:30.083                             : :00:07:30.083
00:14:13.152                             : :00:14:13.152
00:21:04.196                             : :00:21:04.196
00:26:08.100                             : :00:26:08.100
00:32:25.277                             : :00:32:25.277
00:37:08.827                             : :00:37:08.827
00:41:31.756                             : :00:41:31.756
00:47:51.235                             : :00:47:51.235
00:52:34.351                             : :00:52:34.351
00:57:31.148                             : :00:57:31.148
01:02:52.369                             : :01:02:52.369
01:10:31.594                             : :01:10:31.594
01:18:47.156                             : :01:18:47.156
01:25:21.917                             : :01:25:21.917
01:31:38.026                             : :01:31:38.026





Similar Torrents
Type Name Size Added S L
Ebooks Cursed - Christopher G. Nuttall [EN EPUB] [ebook] ...
405.48 kB 2019-06-03 15:06:57 53 5




Trackers:
udp://tracker.coppersurfer.tk:6969/announce

Cursed - Il maleficio (2005).720p.H264.ita.eng.Ac3-5.1.sub.ita.eng-MIRCrew
Files
Cursed Il maleficio (2005).720p.ita.eng.sub.ita.eng-MIRCrew.eng.srt (77.85 kB)
Cursed Il maleficio (2005).720p.ita.eng.sub.ita.eng-MIRCrew.ita.srt (55.76 kB)
Cursed Il maleficio (2005).720p.ita.eng.sub.ita.eng-MIRCrew.mkv (1.86 GB)
Cursed Il maleficio (2005).720p.ita.eng.sub.ita.eng-MIRCrew.srt (471.00 B)


Comments:
No comments still posted

Powered by TT | Page Generated In 1.088703 secs.
| RSS Feed | Feed Info