Warning! Use a VPN When Downloading Torrents!
Your IP Address is .   Location is
Your Internet Provider is tracking your torrent activity!  Hide your IP ADDRESS with a VPN!
We strongly recommend using ExpressVPN to anonymize your torrenting. 30 Day Money Back Guarantee!
Try it Now!

Wash your hands... Stay home, Stay Safe and Play Online @ Slotslights.com

First Cams

Xvid/x264



Non-English

Site Friends
      ETTV

      Torrentz2

      Free Tutorials

      Free Courses Online

      Nulled Premium

      Aiosearch




The Incredible Hulk (2008)Np-4 X264 1080p AAC[DSD]


Download torrent:      
Info Hash:  54b94047bd8e4f1874ad22bd2ea97d8a38f104a9
Category:  Movies > HD
Torrent language:  English  
Seeds | Leech:  48 | 10
Complete:   261
Health:   
Total Size:  1.80 GB
Added By:        dascubadude Site FriendMan
Date Added:  25-03-2020 04:23:pm | Last Edit:  26-03-2020 12:51:pm

IMDB
The Incredible Hulk
The Incredible Hulk Released 13 Jun 2008

Genre Action, Adventure, Sci-Fi

Director Louis Leterrier

Writer Zak Penn (screenplay), Zak Penn (screen story), Stan Lee (Marvel comic book), Jack Kirby (Marvel comic book)

Actors Edward Norton, Liv Tyler, Tim Roth, William Hurt

Plot Bruce Banner, a scientist on the run from the U.S. Government, must find a cure for the monster he turns into whenever he loses his temper.

Link http://www.imdb.com/title/tt0800080

Last Updated 02-04-2020 19:45:00
6.7

Votes 417,267

Un système d'onglets en javascript
Description Trackers Files 1 Comments 0 Download

Seedbox!


The Incredible Hulk (2008)
1080p Blu-Ray Rip
Hash Code:
54B94047BD8E4F1874AD22BD2EA97D8A38F104A9













^Tap on image for IMDb Info for this film^

General
Complete name                            : The Incredible Hulk.theatrical.mp4
Format                                   : MPEG-4
Format profile                           : Base Media / Version 2
Codec ID                                 : mp42 (mp42/isom/avc1)
File size                                : 1.80 GiB
Duration                                 : 1 h 52 min
Overall bit rate mode                    : Variable
Overall bit rate                         : 2 296 kb/s
Movie name                               : The Incredible Hulk.theatrical
Performer                                : Louis Leterrier
Performer/Sorted by                      : Louis Leterrier
Genre                                    : Science Fiction & Action & Adventure
Description                              : Scientist Bruce Banner scours the planet for an antidote to the unbridled force of rage within him: the Hulk. But when the military masterminds who dream of exploiting his powers force him back to civilization, he finds himself coming face to face with a new, deadly foe.
Recorded date                            : 2008
Encoded date                             : UTC 2020-03-25 08:52:37
Tagged date                              : UTC 2020-03-25 09:33:28
Writing application                      : DVDFab 11.0.8.0
Cover                                    : Yes
Title/Sort                               : The Incredible Hulk
LongDescription                          : Scientist Bruce Banner scours the planet for an antidote to the unbridled force of rage within him: the Hulk. But when the military masterminds who dream of exploiting his powers force him back to civilization, he finds himself coming face to face with a new, deadly foe.

Video
ID                                       : 1
Format                                   : AVC
Format/Info                              : Advanced Video Codec
Format profile                           : [email protected]
Format settings                          : CABAC / 2 Ref Frames
Format settings, CABAC                   : Yes
Format settings, RefFrames               : 2 frames
Format settings, GOP                     : M=1, N=24
Codec ID                                 : avc1
Codec ID/Info                            : Advanced Video Coding
Duration                                 : 1 h 52 min
Source duration                          : 1 h 52 min
Bit rate mode                            : Variable
Bit rate                                 : 1 840 kb/s
Maximum bit rate                         : 2 818 kb/s
Width                                    : 1 920 pixels
Height                                   : 816 pixels
Display aspect ratio                     : 2.35:1
Frame rate mode                          : Constant
Frame rate                               : 23.976 (24000/1001) FPS
Color space                              : YUV
Chroma subsampling                       : 4:2:0
Bit depth                                : 8 bits
Scan type                                : Progressive
Bits/(Pixel*Frame)                       : 0.049
Stream size                              : 1.44 GiB (80%)
Source stream size                       : 1.44 GiB (80%)
Encoded date                             : UTC 2020-03-25 08:52:37
Tagged date                              : UTC 2020-03-25 09:33:28
Color primaries                          : BT.709
Transfer characteristics                 : BT.709
Matrix coefficients                      : BT.709
Menus                                    : 4

Audio
ID                                       : 2
Format                                   : AAC
Format/Info                              : Advanced Audio Codec
Format profile                           : LC
Codec ID                                 : mp4a-40-2
Duration                                 : 1 h 52 min
Bit rate mode                            : Variable
Bit rate                                 : 448 kb/s
Maximum bit rate                         : 453 kb/s
Channel(s)                               : 6 channels
Channel positions                        : Front: L C R, Side: L R, LFE
Sampling rate                            : 48.0 kHz
Frame rate                               : 46.875 FPS (1024 SPF)
Compression mode                         : Lossy
Stream size                              : 360 MiB (20%)
Title                                    : English (aac 5.1)
Language                                 : English
Default                                  : Yes
Alternate group                          : 1
Encoded date                             : UTC 2020-03-25 08:52:37
Tagged date                              : UTC 2020-03-25 09:33:28

Text
ID                                       : 3
Format                                   : VobSub
Codec ID                                 : mp4s-E0
Codec ID/Info                            : The same subtitle format used on DVDs
Duration                                 : 1 h 45 min
Bit rate mode                            : Variable
Bit rate                                 : 5 769 b/s
Maximum bit rate                         : 4 249 Mb/s
Stream size                              : 4.35 MiB (0%)
Language                                 : English
Default                                  : Yes
Forced                                   : No
Alternate group                          : 2
Encoded date                             : UTC 2020-03-25 08:52:37
Tagged date                              : UTC 2020-03-25 09:31:31


B)


Similar Torrents
Type Name Size Added S L
Cam/TS The Incredibles 2 2018.HDCAM.XViD.AC3-ETRG
1.25 GB 2018-06-17 17:14:32 13824 4484
Divx/Xvid The.Incredibles.2.2018.HDRip.XviD.AC3-EVO
1.21 GB 2018-10-22 17:19:28 9343 2548
Cam/TS The Incredibles 2 2018 FULL HDCAM x264-24HD
1.95 GB 2018-06-26 17:29:27 2001 745
Cam/TS The Incredibles 2 2018 NEW HDCAM.XViD.AC3-ETRG
1.20 GB 2018-06-27 13:30:21 1902 586
Ebooks Raspberry Pi Made Simple - Learn How To Code Today...
77.52 MB 2019-12-29 14:47:29 1241 161
HD The Incredibles 2 2018 1080p BluRay x264 DTS - 5 1...
4.05 GB 2019-11-10 06:19:35 982 108
Ebooks Raspberry Pi Made Simple (3rd Edition) Learn How t...
77.52 MB 2019-02-04 23:09:49 476 88
h.264/x264 The.Incredibles.2.2018.720p.WEB-DL.X264.AC3-EVO[Et...
2.69 GB 2018-10-22 17:02:11 395 150
Video [PinkOTgirls]Raphaella Ferrari - The First Time Of...
335.10 MB 2019-01-20 07:37:48 364 83
Ebooks Fight Like a Physicist: The Incredible Science Beh...
11.61 MB 2019-12-14 15:26:38 274 26




Trackers:
udp://tracker.openbittorrent.com:80/announce

The Incredible Hulk (2008)Np-4 X264 1080p AAC[DSD]
Files
The Incredible Hulk.theatrical.mp4 (1.80 GB)


Comments:
No comments still posted
Powered by TT | Page Generated In 1.683687 secs.
| RSS Feed | Feed Info