Warning! Use a VPN When Downloading Torrents!
Your IP Address is .   Location is
Your Internet Provider is tracking your torrent activity!  Hide your IP ADDRESS with a VPN!
We strongly recommend using ExpressVPN to anonymize your torrenting. 30 Day Money Back Guarantee!
Try it Now!

Wash your hands... Stay home, Stay Safe and Play Online @ Slotslights.com

First Cams

Xvid/x264



Non-English

Site Friends
      ETTV

      Torrentz2

      Free Tutorials

      Free Courses Online

      Nulled Premium

      Aiosearch




Project Blue Book (2019) S02E10 Operation Mainbrace (1080p AMZN Webrip x265 10bit EAC3 2.0 - Goki)[T...


Download torrent:      
Info Hash:  2cfd0df9110041ee33cf35e7ebef49968c1c1f92
Category:  TV > HEVC/x265
Torrent language:  English  
Seeds | Leech:  95 | 13
Complete:   1,430
Health:   
Total Size:  697.18 MB
Added By:        Goki Site FriendSuperman
Date Added:  25-03-2020 11:24:am | Last Edit:  27-03-2020 05:07:am

IMDB
Project Blue Book
Project Blue Book Released 08 Jan 2019

Genre Drama, Mystery, Sci-Fi, Thriller

Director N/A

Writer David O'Leary

Actors Aidan Gillen, Michael Malarkey, Laura Mennell, Ksenia Solo

Plot A tough US Air Force officer and a skeptical scientist investigate UFO and alien conspiracies as Cold War paranoia spreads.

Link http://www.imdb.com/title/tt6632666

Last Updated 08-04-2020 09:12:21
7.6

Votes 7,271

Un système d'onglets en javascript
Description Trackers Files 1 Comments 0 Download





Project Blue Book (2019) IMDB







Media Information

General
Unique ID                                : 153061347171779318763424325726525136839 (0x73268B0E26000C05C07C657D1B631FC7)
Complete name                            : Project Blue Book (2019) S02E10 Operation Mainbrace (1080p AMZN Webrip x265 10bit EAC3 2.0 - Goki)[TAoE].mkv
Format                                   : Matroska
Format version                           : Version 4
File size                                : 697 MiB
Duration                                 : 43 min 50 s
Overall bit rate                         : 2 223 kb/s
Movie name                               : Project Blue Book (2019) S02E10 Operation Mainbrace (1080p AMZN Webrip x265 10bit EAC3 2.0 - Goki)[TAoE].mkv
Encoded date                             : UTC 2020-03-25 11:12:17
Writing application                      : mkvmerge v28.2.0 ('The Awakening') 64-bit
Writing library                          : libebml v1.3.6 + libmatroska v1.4.9

Video
ID                                       : 1
Format                                   : HEVC
Format/Info                              : High Efficiency Video Coding
Format profile                           : Main [email protected]@Main
Codec ID                                 : V_MPEGH/ISO/HEVC
Duration                                 : 43 min 50 s
Bit rate                                 : 1 997 kb/s
Width                                    : 1 920 pixels
Height                                   : 960 pixels
Display aspect ratio                     : 2.000
Frame rate mode                          : Constant
Frame rate                               : 23.976 (24000/1001) FPS
Color space                              : YUV
Chroma subsampling                       : 4:2:0
Bit depth                                : 10 bits
Bits/(Pixel*Frame)                       : 0.045
Stream size                              : 626 MiB (90%)
Title                                    : Encoded by Goki for TAoE
Writing library                          : x265 3.2+35-acc5d16999e2:[Windows][GCC 9.2.1][64 bit] 10bit
Encoding settings                        : cpuid=1111039 / frame-threads=2 / numa-pools=6 / wpp / no-pmode / no-pme / no-psnr / no-ssim / log-level=2 / input-csp=1 / input-res=1920x960 / interlace=0 / total-frames=0 / level-idc=0 / high-tier=1 / uhd-bd=0 / ref=4 / no-allow-non-conformance / no-repeat-headers / annexb / no-aud / no-hrd / info / hash=0 / no-temporal-layers / open-gop / min-keyint=23 / keyint=250 / gop-lookahead=0 / bframes=8 / b-adapt=2 / b-pyramid / bframe-bias=0 / rc-lookahead=80 / lookahead-slices=4 / scenecut=40 / hist-scenecut=0 / radl=0 / no-splice / no-intra-refresh / ctu=64 / min-cu-size=8 / no-rect / no-amp / max-tu-size=32 / tu-inter-depth=1 / tu-intra-depth=1 / limit-tu=0 / rdoq-level=2 / dynamic-rd=0.00 / no-ssim-rd / signhide / no-tskip / nr-intra=0 / nr-inter=0 / no-constrained-intra / no-strong-intra-smoothing / max-merge=3 / limit-refs=3 / limit-modes / me=3 / subme=5 / merange=57 / temporal-mvp / no-frame-dup / no-hme / weightp / no-weightb / no-analyze-src-pics / deblock=0:0 / sao / no-sao-non-deblock / rd=4 / selective-sao=4 / no-early-skip / rskip / no-fast-intra / no-tskip-fast / no-cu-lossless / no-b-intra / no-splitrd-skip / rdpenalty=0 / psy-rd=1.30 / psy-rdoq=2.00 / no-rd-refine / no-lossless / cbqpoffs=0 / crqpoffs=0 / rc=crf / crf=19.5 / qcomp=0.60 / qpstep=4 / stats-write=0 / stats-read=0 / ipratio=1.40 / pbratio=1.30 / aq-mode=4 / aq-strength=1.10 / cutree / zone-count=0 / no-strict-cbr / qg-size=32 / no-rc-grain / qpmax=69 / qpmin=0 / no-const-vbv / sar=1 / overscan=0 / videoformat=5 / range=0 / colorprim=2 / transfer=2 / colormatrix=2 / chromaloc=0 / display-window=0 / cll=0,0 / min-luma=0 / max-luma=1023 / log2-max-poc-lsb=8 / vui-timing-info / vui-hrd-info / slices=1 / no-opt-qp-pps / no-opt-ref-list-length-pps / no-multi-pass-opt-rps / scenecut-bias=0.05 / hist-threshold=0.01 / no-opt-cu-delta-qp / no-aq-motion / no-hdr10 / no-hdr10-opt / no-dhdr10-opt / no-idr-recovery-sei / analysis-reuse-level=0 / analysis-save-reuse-level=0 / analysis-load-reuse-level=0 / scale-factor=0 / refine-intra=0 / refine-inter=0 / refine-mv=1 / refine-ctu-distortion=0 / no-limit-sao / ctu-info=0 / no-lowpass-dct / refine-analysis-type=0 / copy-pic=1 / max-ausize-factor=1.0 / no-dynamic-refine / no-single-sei / no-hevc-aq / no-svt / no-field / qp-adaptation-range=1.00 / no-scenecut-aware-qpconformance-window-offsets / right=0 / bottom=0
Default                                  : Yes
Forced                                   : No
Color range                              : Limited

Audio
ID                                       : 2
Format                                   : E-AC-3
Format/Info                              : Enhanced AC-3
Commercial name                          : Dolby Digital Plus
Codec ID                                 : A_EAC3
Duration                                 : 43 min 50 s
Bit rate mode                            : Constant
Bit rate                                 : 224 kb/s
Channel(s)                               : 2 channels
Channel layout                           : L R
Sampling rate                            : 48.0 kHz
Frame rate                               : 31.250 FPS (1536 SPF)
Compression mode                         : Lossy
Stream size                              : 70.2 MiB (10%)
Language                                 : English
Service kind                             : Complete Main
Default                                  : Yes
Forced                                   : No

Text #1
ID                                       : 3
Format                                   : UTF-8
Codec ID                                 : S_TEXT/UTF8
Codec ID/Info                            : UTF-8 Plain Text
Duration                                 : 43 min 13 s
Bit rate                                 : 63 b/s
Count of elements                        : 684
Stream size                              : 20.2 KiB (0%)
Language                                 : English
Default                                  : No
Forced                                   : No

Text #2
ID                                       : 4
Format                                   : UTF-8
Codec ID                                 : S_TEXT/UTF8
Codec ID/Info                            : UTF-8 Plain Text
Duration                                 : 43 min 13 s
Bit rate                                 : 69 b/s
Count of elements                        : 885
Stream size                              : 21.9 KiB (0%)
Title                                    : SDH
Language                                 : English
Default                                  : No
Forced                                   : No

Source
1080p AMZN WEB-DL NTG
187672902165836504273616277282548316388 (0x8D307C77CED512E5BEC0B9A0F61378E4)

Hello everyone,
We are TAoE, a small team of passionate encoders who love encoding. We try our best to provide you with high quality releases.
If you would like to join the team just drop us a comment or send us a message.



.........................................................................................................................................


Similar Torrents
Type Name Size Added S L
Video IT-1898 suffering now teaching by a woman old Ha...
2.29 GB 2019-04-11 07:43:03 7299 6078
All [HorribleSubs] Shironeko Project - Zero Chronicle ...
605.74 MB 2020-04-06 18:42:53 5753 3279
All [HorribleSubs] Shironeko Project - Zero Chronicle ...
1.34 GB 2020-04-06 18:42:37 5051 2163
Audio Ed Sheeran - No.6 Collaborations Project (2019) Mp...
115.40 MB 2019-07-10 22:37:54 4664 1223
HD Video +++ [HD Uncensored] SNIS-675 S1×ATTACKERS spec...
4.43 GB 2020-02-09 17:43:26 4224 4242
Video FC2-PPV-1049542 cloudy pink or for the first time...
3.92 GB 2019-03-14 15:04:18 3465 2989
Video Project left Xenogenic Chi Chi complete hot wat...
771.12 MB 2019-06-07 20:56:27 3391 4099
HD Video HD BLK-422 AIKA Amateur Gal excavation Nampa proj...
3.46 GB 2019-09-13 18:07:44 2689 3470
HD Video +++ [HD] MIAA-213 while away from home project bro...
5.86 GB 2020-01-10 16:24:10 2344 6786
Video 91 dew year-old desperate for mainstream high b...
470.12 MB 2019-05-02 04:36:47 2315 1693




Trackers:
udp://tracker.coppersurfer.tk:6969/announce

Project Blue Book (2019) S02E10 Operation Mainbrace (1080p AMZN Webrip x265 10bit EAC3 2.0 - Goki)[TAoE].mkv
Files
Project Blue Book (2019) S02E10 Operation Mainbrace (1080p AMZN Webrip x265 10bit EAC3 2.0 - Goki)[TAoE].mkv (697.18 MB)


Comments:
No comments still posted
Powered by TT | Page Generated In 1.248432 secs.
| RSS Feed | Feed Info