Warning! Use a VPN When Downloading Torrents!
Your IP Address is .   Location is
Your Internet Provider is tracking your torrent activity!  Hide your IP ADDRESS with a VPN!
We strongly recommend using ExpressVPN to anonymize your torrenting. 30 Day Money Back Guarantee!
Try it Now!

Wash your hands... Stay home, Stay Safe and Play Online @ Slotslights.com

First Cams

Xvid/x264



Non-English

Site Friends
      ETTV

      Torrentz2

      Free Tutorials

      Free Courses Online

      Nulled Premium

      Aiosearch




The Gloaming (2020) S01 (1080p Webrip x265 10bit EAC3 5.1 - Ainz)[TAoE] mkv


Download torrent:      
Info Hash:  8c75c2e1f7722cfa45686f0fb390eaf22b2d4b8e
Category:  TV > HEVC/x265
Torrent language:  English  
Seeds | Leech:  27 | 32
Complete:   695
Health:   
Total Size:  9.16 GB
Added By:        Goki Site FriendSuperman
Date Added:  25-03-2020 10:18:am | Last Edit:  28-03-2020 08:59:pm

IMDB
The Gloaming
The Gloaming Released 01 Jan 2020

Genre Crime, Drama, Horror, Mystery

Director N/A

Writer Vicki Madden

Actors Emma Booth, Ewen Leslie, Aaron Pedersen, Anthony Phelan

Plot When an unidentified woman is found brutally murdered, Detective Molly McGee teams up with fellow cop, Alex O'Connell, with whom she shares a tragic past, to solve the crime.

Link http://www.imdb.com/title/tt8610212

Last Updated 30-03-2020 18:06:37
6.6

Votes 473

Un système d'onglets en javascript
Description Trackers Files 8 Comments 0 Download





The Gloaming (2020) IMDB










Synopsis

When an unidentified woman is found brutally murdered, Detective Molly McGee teams up with fellow cop, Alex O'Connell, with whom she shares a tragic past, to solve the crime.


Media Information
General
Unique ID                                : 238043983948259184110844213395935731177 (0xB3159A8A8EB41E84615497050E581DE9)
Complete name                            : The Gloaming (2020) S01E01 (1080p Webrip x265 10bit EAC3 5.1 - Ainz)[TAoE].mkv.mkv
Format                                   : Matroska
Format version                           : Version 4 / Version 2
File size                                : 1.22 GiB
Duration                                 : 54 min 32 s
Overall bit rate                         : 3 214 kb/s
Writing application                      : Lavf58.39.101
Writing library                          : Lavf58.39.101
ErrorDetectionType                       : Per level 1

Video
ID                                       : 1
Format                                   : HEVC
Format/Info                              : High Efficiency Video Coding
Format profile                           : Main [email protected]@Main
Codec ID                                 : V_MPEGH/ISO/HEVC
Duration                                 : 54 min 32 s
Bit rate                                 : 2 702 kb/s
Width                                    : 1 920 pixels
Height                                   : 1 080 pixels
Display aspect ratio                     : 16:9
Frame rate mode                          : Constant
Frame rate                               : 25.000 FPS
Color space                              : YUV
Chroma subsampling                       : 4:2:0
Bit depth                                : 10 bits
Bits/(Pixel*Frame)                       : 0.052
Stream size                              : 1.03 GiB (84%)
Writing library                          : x265 3.3+2-dd2464df2f40:[Linux][GCC 8.3.0][64 bit] 10bit
Encoding settings                        : cpuid=1111039 / frame-threads=3 / numa-pools=8 / wpp / no-pmode / no-pme / no-psnr / no-ssim / log-level=2 / input-csp=1 / input-res=1920x1080 / interlace=0 / total-frames=0 / level-idc=0 / high-tier=1 / uhd-bd=0 / ref=4 / no-allow-non-conformance / no-repeat-headers / annexb / no-aud / no-hrd / info / hash=0 / no-temporal-layers / open-gop / min-keyint=25 / keyint=250 / gop-lookahead=0 / bframes=8 / b-adapt=2 / b-pyramid / bframe-bias=0 / rc-lookahead=80 / lookahead-slices=4 / scenecut=40 / hist-scenecut=0 / radl=0 / no-splice / no-intra-refresh / ctu=64 / min-cu-size=8 / rect / no-amp / max-tu-size=32 / tu-inter-depth=1 / tu-intra-depth=1 / limit-tu=0 / rdoq-level=2 / dynamic-rd=0.00 / no-ssim-rd / signhide / no-tskip / nr-intra=0 / nr-inter=0 / no-constrained-intra / no-strong-intra-smoothing / max-merge=3 / limit-refs=3 / limit-modes / me=3 / subme=5 / merange=57 / temporal-mvp / no-frame-dup / no-hme / weightp / no-weightb / no-analyze-src-pics / deblock=0:0 / sao / no-sao-non-deblock / rd=4 / selective-sao=4 / no-early-skip / rskip / no-fast-intra / no-tskip-fast / no-cu-lossless / no-b-intra / no-splitrd-skip / rdpenalty=0 / psy-rd=2.00 / psy-rdoq=1.00 / no-rd-refine / no-lossless / cbqpoffs=0 / crqpoffs=0 / rc=crf / crf=19.5 / qcomp=0.60 / qpstep=4 / stats-write=0 / stats-read=0 / ipratio=1.40 / pbratio=1.30 / aq-mode=4 / aq-strength=1.00 / cutree / zone-count=0 / no-strict-cbr / qg-size=32 / no-rc-grain / qpmax=69 / qpmin=0 / no-const-vbv / sar=1 / overscan=0 / videoformat=5 / range=0 / colorprim=2 / transfer=2 / colormatrix=2 / chromaloc=0 / display-window=0 / cll=0,0 / min-luma=0 / max-luma=1023 / log2-max-poc-lsb=8 / vui-timing-info / vui-hrd-info / slices=1 / no-opt-qp-pps / no-opt-ref-list-length-pps / no-multi-pass-opt-rps / scenecut-bias=0.05 / hist-threshold=0.01 / no-opt-cu-delta-qp / no-aq-motion / no-hdr10 / no-hdr10-opt / no-dhdr10-opt / no-idr-recovery-sei / analysis-reuse-level=0 / analysis-save-reuse-level=0 / analysis-load-reuse-level=0 / scale-factor=0 / refine-intra=0 / refine-inter=0 / refine-mv=1 / refine-ctu-distortion=0 / no-limit-sao / ctu-info=0 / no-lowpass-dct / refine-analysis-type=0 / copy-pic=1 / max-ausize-factor=1.0 / no-dynamic-refine / no-single-sei / no-hevc-aq / no-svt / no-field / qp-adaptation-range=1.00 / no-scenecut-aware-qpconformance-window-offsets / right=0 / bottom=0
Default                                  : Yes
Forced                                   : No
Color range                              : Limited
Statistics Tags Issue                    : mkvmerge v41.0.0 ('Smarra') 64-bit 2020-01-04 22:44:43 / Lavf58.39.101
FromStats_BitRate                        : 5585698
FromStats_Duration                       : 00:54:32.000000000
FromStats_FrameCount                     : 81800
FromStats_StreamSize                     : 2284550591

Audio
ID                                       : 2
Format                                   : E-AC-3
Format/Info                              : Enhanced Audio Coding 3
Codec ID                                 : A_EAC3
Duration                                 : 54 min 32 s
Bit rate mode                            : Constant
Bit rate                                 : 448 kb/s
Channel(s)                               : 6 channels
Channel positions                        : Front: L C R, Side: L R, LFE
Sampling rate                            : 48.0 kHz
Frame rate                               : 187.500 FPS (256 SPF)
Bit depth                                : 32 bits
Compression mode                         : Lossy
Stream size                              : 175 MiB (14%)
Language                                 : English
Service kind                             : Complete Main
Default                                  : Yes
Forced                                   : No
Statistics Tags Issue                    : mkvmerge v41.0.0 ('Smarra') 64-bit 2020-01-04 22:44:43 / Lavf58.39.101
FromStats_BitRate                        : 448000
FromStats_Duration                       : 00:54:32.000000000
FromStats_FrameCount                     : 102250
FromStats_StreamSize                     : 183232000

Text
ID                                       : 3
Format                                   : UTF-8
Codec ID                                 : S_TEXT/UTF8
Codec ID/Info                            : UTF-8 Plain Text
Title                                    : English
Language                                 : English
Default                                  : No
Forced                                   : No
Statistics Tags Issue                    : mkvmerge v41.0.0 ('Smarra') 64-bit 2020-01-04 22:44:43 / Lavf58.39.101
FromStats_BitRate                        : 38
FromStats_Duration                       : 00:53:28.100000000
FromStats_FrameCount                     : 523
FromStats_StreamSize                     : 14986

Source
1080p WEB-DL Ghosts
Thank you for all the hardwork you do, without it, this would not be possible!



Hello everyone,
We are TAoE, a small team of passionate encoders who love encoding. We try our best to provide you with high quality releases.
If you would like to join the team just drop us a comment or send us a message.


.........................................................................................................................................






Trackers:
udp://tracker.coppersurfer.tk:6969/announce

The Gloaming (2020) S01 (1080p Webrip x265 10bit EAC3 5.1 - Ainz)[TAoE] mkv
Files
The Gloaming (2020) S01E01 (1080p Webrip x265 10bit EAC3 5.1 - Ainz)[TAoE].mkv (1.22 GB)
The Gloaming (2020) S01E02 (1080p Webrip x265 10bit EAC3 5.1 - Ainz)[TAoE].mkv (1.09 GB)
The Gloaming (2020) S01E03 (1080p Webrip x265 10bit EAC3 5.1 - Ainz)[TAoE].mkv (1.05 GB)
The Gloaming (2020) S01E04 (1080p Webrip x265 10bit EAC3 5.1 - Ainz)[TAoE].mkv (1.11 GB)
The Gloaming (2020) S01E05 (1080p Webrip x265 10bit EAC3 5.1 - Ainz)[TAoE].mkv (1.14 GB)
The Gloaming (2020) S01E06 (1080p Webrip x265 10bit EAC3 5.1 - Ainz)[TAoE].mkv (1.09 GB)
The Gloaming (2020) S01E07 (1080p Webrip x265 10bit EAC3 5.1 - Ainz)[TAoE].mkv (1.28 GB)
The Gloaming (2020) S01E08 (1080p Webrip x265 10bit EAC3 5.1 - Ainz)[TAoE].mkv (1.19 GB)


Comments:
No comments still posted
Powered by TT | Page Generated In 4.588232 secs.
| RSS Feed | Feed Info