Warning! Use a VPN When Downloading Torrents!
Your IP Address is .   Location is
Your Internet Provider is tracking your torrent activity!  Hide your IP ADDRESS with a VPN!
We strongly recommend using ExpressVPN to anonymize your torrenting. 30 Day Money Back Guarantee!
Try it Now!

Wash your hands... Stay home, Stay Safe and Play Online @ Slotslights.com

First Cams

Xvid/x264



Non-English

Site Friends
      ETTV

      Torrentz2

      Free Tutorials

      Free Courses Online

      Nulled Premium

      Aiosearch




Un giorno di pioggia a New York-A Rainy Day in New York (2019) ITA-ENG Ac3 5.1 BDRip 1080p H264 [ArM...


Download torrent:      
Info Hash:  847303fd6594de0900ad1d8f555860281f945a8f
Category:  Movies > HD
Torrent language:  English  
Seeds | Leech:  339 | 100
Complete:   9,997
Health:   
Total Size:  2.78 GB
Added By:        ArMor
Date Added:  25-03-2020 06:41:am | Last Edit:  01-04-2020 02:20:pm

Un système d'onglets en javascript
Description Trackers Files 4 Comments 0 Download













General
Unique ID                                : 84613851840325215842803489910545730918 (0x3FA808FC1CA7570E80D1714EF6F84D66)
Complete name                            : Un giorno di pioggia a New York-A Rainy Day in New York (2019) ITA-ENG Ac3 5.1 BDRip 1080p H264 [ArMor].mkv
Format                                   : Matroska
Format version                           : Version 4
File size                                : 2.78 GiB
Duration                                 : 1 h 32 min
Overall bit rate                         : 4 304 kb/s
Movie name                               : CineBlog01HD
Encoded date                             : UTC 2020-03-24 14:29:17
Writing application                      : HandBrake 1.2.0 2018121700
Writing library                          : Lavf58.20.100
ErrorDetectionType                       : Per level 1

Video
ID                                       : 1
Format                                   : AVC
Format/Info                              : Advanced Video Codec
Format profile                           : [email protected]
Format settings                          : CABAC / 4 Ref Frames
Format settings, CABAC                   : Yes
Format settings, Reference frames        : 4 frames
Codec ID                                 : V_MPEG4/ISO/AVC
Duration                                 : 1 h 32 min
Bit rate                                 : 3 322 kb/s
Nominal bit rate                         : 3 500 kb/s
Width                                    : 1 920 pixels
Height                                   : 960 pixels
Display aspect ratio                     : 2.000
Frame rate mode                          : Constant
Frame rate                               : 23.976 (24000/1001) FPS
Color space                              : YUV
Chroma subsampling                       : 4:2:0
Bit depth                                : 8 bits
Scan type                                : Progressive
Bits/(Pixel*Frame)                       : 0.075
Stream size                              : 2.14 GiB (77%)
Writing library                          : x264 core 157 r2935 545de2f
Encoding settings                        : cabac=1 / ref=2 / deblock=1:0:0 / analyse=0x1:0x111 / me=hex / subme=6 / psy=1 / psy_rd=1.00:0.00 / mixed_ref=1 / me_range=16 / chroma_me=1 / trellis=1 / 8x8dct=0 / cqm=0 / deadzone=21,11 / fast_pskip=1 / chroma_qp_offset=-2 / threads=18 / lookahead_threads=3 / sliced_threads=0 / nr=0 / decimate=1 / interlaced=0 / bluray_compat=0 / constrained_intra=0 / bframes=3 / b_pyramid=2 / b_adapt=1 / b_bias=0 / direct=1 / weightb=1 / open_gop=0 / weightp=1 / keyint=240 / keyint_min=24 / scenecut=40 / intra_refresh=0 / rc_lookahead=30 / rc=abr / mbtree=1 / bitrate=3500 / ratetol=1.0 / qcomp=0.60 / qpmin=0 / qpmax=69 / qpstep=4 / vbv_maxrate=50000 / vbv_bufsize=62500 / nal_hrd=none / filler=0 / ip_ratio=1.40 / aq=1:1.00
Default                                  : Yes
Forced                                   : No
Color range                              : Limited
Color primaries                          : BT.709
Transfer characteristics                 : BT.709
Matrix coefficients                      : BT.709

Audio #1
ID                                       : 2
Format                                   : AC-3
Format/Info                              : Audio Coding 3
Commercial name                          : Dolby Digital
Codec ID                                 : A_AC3
Duration                                 : 1 h 32 min
Bit rate mode                            : Constant
Bit rate                                 : 448 kb/s
Channel(s)                               : 6 channels
Channel layout                           : L R C LFE Ls Rs
Sampling rate                            : 48.0 kHz
Frame rate                               : 31.250 FPS (1536 SPF)
Compression mode                         : Lossy
Stream size                              : 296 MiB (10%)
Title                                    : Surround
Language                                 : Italian
Service kind                             : Complete Main
Default                                  : Yes
Forced                                   : No

Audio #2
ID                                       : 3
Format                                   : AC-3
Format/Info                              : Audio Coding 3
Commercial name                          : Dolby Digital
Codec ID                                 : A_AC3
Duration                                 : 1 h 32 min
Bit rate mode                            : Constant
Bit rate                                 : 448 kb/s
Channel(s)                               : 6 channels
Channel layout                           : L R C LFE Ls Rs
Sampling rate                            : 48.0 kHz
Frame rate                               : 31.250 FPS (1536 SPF)
Compression mode                         : Lossy
Stream size                              : 296 MiB (10%)
Title                                    : Surround
Language                                 : English
Service kind                             : Complete Main
Default                                  : No
Forced                                   : No



Similar Torrents
Type Name Size Added S L
HD Earth One Amazing Day - Earth - Un giorno straordi...
1.73 GB 2018-06-16 17:58:57 392 70
HEVC/x265 Earth One Amazing Day - Un giorno straordinario AC...
3.20 GB 2019-01-26 12:02:42 267 255
HD The End? - L'inferno fuori - In un giorno la fine ...
1.47 GB 2019-03-05 18:02:39 253 73
HD Raccontami di un giorno perfetto-All the Bright Pl...
3.04 GB 2020-03-13 15:10:15 130 20
HD Un giorno di ordinaria follia - Falling Down (1993...
3.44 GB 2019-09-17 22:39:57 58 62
HD In.un.giorno.la.fine.2017.1080p.AMZN.WEB-DL.DDP2.0...
3.26 GB 2020-02-13 23:39:02 12 3
HEVC/x265 Falling Down - Un giorno di ordinaria follia (1993...
2.56 GB 2019-09-17 10:09:19 6 59




Trackers:
udp://tracker.coppersurfer.tk:6969/announce

Un giorno di pioggia a New York-A Rainy Day in New York (2019) ITA-ENG Ac3 5.1 BDRip 1080p H264 [ArMor]
Files
MV5BODAwZDlhZjUt[email protected]._V1_.jpg (60.13 kB)
Un giorno di pioggia a New York-A Rainy Day in New York (2019) ITA-ENG Ac3 5.1 BDRip 1080p H264 [ArMor].mkv (2.78 GB)
Un.giorno.di.pioggia.a.New.York.2019.ITA-ENG.Bluray.1080p_ita_forced.srt (72.00 B)
Un.giorno.di.pioggia.a.New.York.2019.ITA-ENG.Bluray_ita.srt (110.77 kB)


Comments:
No comments still posted
Powered by TT | Page Generated In 1.687387 secs.
| RSS Feed | Feed Info