Warning! Use a VPN When Downloading Torrents!
Your IP Address is .   Location is
Your Internet Provider is tracking your torrent activity!  Hide your IP ADDRESS with a VPN!
We strongly recommend using ExpressVPN to anonymize your torrenting. 30 Day Money Back Guarantee!
Try it Now!

Wash your hands... Stay home, Stay Safe and Play Online @ Slotslights.com

First Cams

Xvid/x264



Non-English

Site Friends
      ETTV

      Torrentz2

      Free Tutorials

      Free Courses Online

      Nulled Premium

      Aiosearch




The Beach Bum-Una vita in fumo (2019) ITA-ENG Ac3 5.1 BDRip 1080p H264 [ArMor]


Download torrent:      
Info Hash:  f744b0a7bbcd53f7c1aae26abbcc6cf19a462669
Category:  Movies > HD
Torrent language:  English  
Seeds | Leech:  245 | 101
Complete:   5,860
Health:   
Total Size:  2.88 GB
Added By:        ArMor
Date Added:  25-03-2020 06:36:am | Last Edit:  27-03-2020 05:05:am

Un système d'onglets en javascript
Description Trackers Files 4 Comments 0 Download













General
Unique ID                                : 51778050248389936598690996639468905847 (0x26F416F96EB0A26F27A4815236206577)
Complete name                            : The Beach Bum-Una vita in fumo (2019) ITA-ENG Ac3 5.1 BDRip 1080p H264 [ArMor].mkv
Format                                   : Matroska
Format version                           : Version 4
File size                                : 2.88 GiB
Duration                                 : 1 h 34 min
Overall bit rate                         : 4 359 kb/s
Movie name                               : CineBlog01HD
Encoded date                             : UTC 2020-03-24 13:52:40
Writing application                      : HandBrake 1.2.0 2018121700
Writing library                          : Lavf58.20.100
ErrorDetectionType                       : Per level 1

Video
ID                                       : 1
Format                                   : AVC
Format/Info                              : Advanced Video Codec
Format profile                           : [email protected]
Format settings                          : CABAC / 4 Ref Frames
Format settings, CABAC                   : Yes
Format settings, Reference frames        : 4 frames
Codec ID                                 : V_MPEG4/ISO/AVC
Duration                                 : 1 h 34 min
Bit rate                                 : 3 500 kb/s
Width                                    : 1 920 pixels
Height                                   : 804 pixels
Display aspect ratio                     : 2.40:1
Frame rate mode                          : Constant
Frame rate                               : 23.976 (24000/1001) FPS
Color space                              : YUV
Chroma subsampling                       : 4:2:0
Bit depth                                : 8 bits
Scan type                                : Progressive
Bits/(Pixel*Frame)                       : 0.095
Stream size                              : 2.23 GiB (77%)
Writing library                          : x264 core 157 r2935 545de2f
Encoding settings                        : cabac=1 / ref=2 / deblock=1:0:0 / analyse=0x1:0x111 / me=hex / subme=6 / psy=1 / psy_rd=1.00:0.00 / mixed_ref=1 / me_range=16 / chroma_me=1 / trellis=1 / 8x8dct=0 / cqm=0 / deadzone=21,11 / fast_pskip=1 / chroma_qp_offset=-2 / threads=18 / lookahead_threads=3 / sliced_threads=0 / nr=0 / decimate=1 / interlaced=0 / bluray_compat=0 / constrained_intra=0 / bframes=3 / b_pyramid=2 / b_adapt=1 / b_bias=0 / direct=1 / weightb=1 / open_gop=0 / weightp=1 / keyint=240 / keyint_min=24 / scenecut=40 / intra_refresh=0 / rc_lookahead=30 / rc=abr / mbtree=1 / bitrate=3500 / ratetol=1.0 / qcomp=0.60 / qpmin=0 / qpmax=69 / qpstep=4 / vbv_maxrate=50000 / vbv_bufsize=62500 / nal_hrd=none / filler=0 / ip_ratio=1.40 / aq=1:1.00
Default                                  : Yes
Forced                                   : No
Color range                              : Limited
Color primaries                          : BT.709
Transfer characteristics                 : BT.709
Matrix coefficients                      : BT.709

Audio #1
ID                                       : 2
Format                                   : AC-3
Format/Info                              : Audio Coding 3
Commercial name                          : Dolby Digital
Codec ID                                 : A_AC3
Duration                                 : 1 h 34 min
Bit rate mode                            : Constant
Bit rate                                 : 448 kb/s
Channel(s)                               : 6 channels
Channel layout                           : L R C LFE Ls Rs
Sampling rate                            : 48.0 kHz
Frame rate                               : 31.250 FPS (1536 SPF)
Compression mode                         : Lossy
Stream size                              : 303 MiB (10%)
Title                                    : Surround
Language                                 : Italian
Service kind                             : Complete Main
Default                                  : Yes
Forced                                   : No

Audio #2
ID                                       : 3
Format                                   : AC-3
Format/Info                              : Audio Coding 3
Commercial name                          : Dolby Digital
Codec ID                                 : A_AC3
Duration                                 : 1 h 34 min
Bit rate mode                            : Constant
Bit rate                                 : 448 kb/s
Channel(s)                               : 6 channels
Channel layout                           : L R C LFE Ls Rs
Sampling rate                            : 48.0 kHz
Frame rate                               : 31.250 FPS (1536 SPF)
Compression mode                         : Lossy
Stream size                              : 303 MiB (10%)
Title                                    : Surround
Language                                 : English
Service kind                             : Complete Main
Default                                  : No
Forced                                   : No



Similar Torrents
Type Name Size Added S L
HD The.Beach.Bum.2019.1080p.WEB-DL.DD5.1.H264-SHITBOX
3.13 GB 2019-06-07 17:53:00 3527 989
HD Video HD DVDMS-379 saddle Hami from that thick ass on t...
6.71 GB 2019-03-19 21:18:07 2396 4218
HD Video FC2-PPV 1023788 pieces takefashion Department of s...
799.67 MB 2019-01-29 22:19:43 2279 594
Video 300MAAN-411 pieces takeAmateurdrainYukina18 years ...
877.32 MB 2019-06-07 20:14:37 2062 3973
HD Video +++ [HD] BLOR-137 feature fun came on the scene wi...
4.86 GB 2020-01-20 22:41:40 1845 1454
Video Summer beach bikini suits 10 Modern Girl Nampa ser...
1.38 GB 2019-02-08 18:54:16 1609 1449
Video 261ARA-333 brainwashed desire 21 years oldCollegeF...
770.00 MB 2019-04-02 18:07:20 1368 1680
HD Video HD 300MAAN-411 pieces takeAmateurdrainYukina18 ye...
5.12 GB 2019-06-04 18:12:21 1358 1726
Video FC2-PPV-1158694 FC2 bulletinsdisturbance Pacopiec...
6.05 GB 2019-09-10 15:47:08 1346 1631
Video FC2-PPV-821414 full first takein uniform fuckingla...
1.44 GB 2019-05-10 15:50:03 1207 1215




Trackers:
udp://tracker.coppersurfer.tk:6969/announce

The Beach Bum-Una vita in fumo (2019) ITA-ENG Ac3 5.1 BDRip 1080p H264 [ArMor]
Files
Beach.Bum.Un.vita.in.fumo.2019.ITA-ENG.Bluray.1080p_ita.srt (92.20 kB)
Beach.Bum.Un.vita.in.fumo.2019.ITA-ENG.Bluray_ita_forced.srt (168.00 B)
[email protected]_V1_SY1000_CR0,0,675,1000_AL_.jpg (191.64 kB)
The Beach Bum-Una vita in fumo (2019) ITA-ENG Ac3 5.1 BDRip 1080p H264 [ArMor].mkv (2.88 GB)


Comments:
No comments still posted
Powered by TT | Page Generated In 1.093098 secs.
| RSS Feed | Feed Info