Warning! Use a VPN When Downloading Torrents!
Your IP Address is .   Location is
Your Internet Provider is tracking your torrent activity!  Hide your IP ADDRESS with a VPN!
We strongly recommend using ExpressVPN to anonymize your torrenting. 30 Day Money Back Guarantee!
Try it Now!

Wash your hands... Stay home, Stay Safe and Play Online @ Slotslights.com

First Cams

Xvid/x264



Non-English

Site Friends
      ETTV

      Torrentz2

      Free Tutorials

      Free Courses Online

      Nulled Premium

      Aiosearch




Lilli e il vagabondo-Lady and the Tramp (2019) ITA-ENG Ac3 5.1 WEBRip 1080p H264 [ArMor]


Download torrent:      
Info Hash:  bc3a14bb60554b54a5997aa1b4d453a978b6d602
Category:  Movies > HD
Torrent language:  English  
Seeds | Leech:  729 | 185
Complete:   13,957
Health:   
Total Size:  3.16 GB
Added By:        ArMor
Date Added:  25-03-2020 06:34:am | Last Edit:  05-04-2020 02:25:pm

Un système d'onglets en javascript
Description Trackers Files 4 Comments 0 Download













General
Unique ID                                : 130681247327455231324997647540953516894 (0x62504AF0FE8E2106B8B0ECF615838B5E)
Complete name                            : Lilli e il vagabondo-Lady and the Tramp (2019) ITA-ENG Ac3 5.1 WEBRip 1080p H264 [ArMor].mkv
Format                                   : Matroska
Format version                           : Version 4
File size                                : 3.16 GiB
Duration                                 : 1 h 51 min
Overall bit rate                         : 4 064 kb/s
Movie name                               : CineBlog01HD
Encoded date                             : UTC 2020-03-24 00:57:18
Writing application                      : HandBrake 1.2.0 2018121700
Writing library                          : Lavf58.20.100
ErrorDetectionType                       : Per level 1

Video
ID                                       : 1
Format                                   : AVC
Format/Info                              : Advanced Video Codec
Format profile                           : [email protected]
Format settings                          : CABAC / 4 Ref Frames
Format settings, CABAC                   : Yes
Format settings, Reference frames        : 4 frames
Codec ID                                 : V_MPEG4/ISO/AVC
Duration                                 : 1 h 51 min
Bit rate                                 : 3 087 kb/s
Nominal bit rate                         : 3 500 kb/s
Width                                    : 1 920 pixels
Height                                   : 960 pixels
Display aspect ratio                     : 2.000
Frame rate mode                          : Constant
Frame rate                               : 23.976 (24000/1001) FPS
Color space                              : YUV
Chroma subsampling                       : 4:2:0
Bit depth                                : 8 bits
Scan type                                : Progressive
Bits/(Pixel*Frame)                       : 0.070
Stream size                              : 2.40 GiB (76%)
Writing library                          : x264 core 157 r2935 545de2f
Encoding settings                        : cabac=1 / ref=2 / deblock=1:0:0 / analyse=0x1:0x111 / me=hex / subme=6 / psy=1 / psy_rd=1.00:0.00 / mixed_ref=1 / me_range=16 / chroma_me=1 / trellis=1 / 8x8dct=0 / cqm=0 / deadzone=21,11 / fast_pskip=1 / chroma_qp_offset=-2 / threads=18 / lookahead_threads=3 / sliced_threads=0 / nr=0 / decimate=1 / interlaced=0 / bluray_compat=0 / constrained_intra=0 / bframes=3 / b_pyramid=2 / b_adapt=1 / b_bias=0 / direct=1 / weightb=1 / open_gop=0 / weightp=1 / keyint=240 / keyint_min=24 / scenecut=40 / intra_refresh=0 / rc_lookahead=30 / rc=abr / mbtree=1 / bitrate=3500 / ratetol=1.0 / qcomp=0.60 / qpmin=0 / qpmax=69 / qpstep=4 / vbv_maxrate=50000 / vbv_bufsize=62500 / nal_hrd=none / filler=0 / ip_ratio=1.40 / aq=1:1.00
Default                                  : Yes
Forced                                   : No
Color range                              : Limited
Color primaries                          : BT.709
Transfer characteristics                 : BT.709
Matrix coefficients                      : BT.709

Audio #1
ID                                       : 2
Format                                   : AC-3
Format/Info                              : Audio Coding 3
Commercial name                          : Dolby Digital
Codec ID                                 : A_AC3
Duration                                 : 1 h 51 min
Bit rate mode                            : Constant
Bit rate                                 : 448 kb/s
Channel(s)                               : 6 channels
Channel layout                           : L R C LFE Ls Rs
Sampling rate                            : 48.0 kHz
Frame rate                               : 31.250 FPS (1536 SPF)
Compression mode                         : Lossy
Stream size                              : 357 MiB (11%)
Title                                    : Surround
Language                                 : Italian
Service kind                             : Complete Main
Default                                  : Yes
Forced                                   : No

Audio #2
ID                                       : 3
Format                                   : AC-3
Format/Info                              : Audio Coding 3
Commercial name                          : Dolby Digital
Codec ID                                 : A_AC3
Duration                                 : 1 h 51 min
Bit rate mode                            : Constant
Bit rate                                 : 448 kb/s
Channel(s)                               : 6 channels
Channel layout                           : L R C LFE Ls Rs
Sampling rate                            : 48.0 kHz
Frame rate                               : 31.250 FPS (1536 SPF)
Compression mode                         : Lossy
Stream size                              : 357 MiB (11%)
Title                                    : Surround
Language                                 : English
Service kind                             : Complete Main
Default                                  : No
Forced                                   : No



Similar Torrents
Type Name Size Added S L
HD Lady and the Tramp - Lilli e il Vagabondo (2019).7...
2.05 GB 2020-03-28 22:18:59 449 141
HEVC/x265 Lady and the Tramp - Lilli e il vagabondo 2 Il cuc...
1.50 GB 2019-09-27 22:22:24 166 85
HEVC/x265 Lady and the Tramp - Lilli e il vagabondo (2019) A...
2.55 GB 2020-03-28 14:29:07 64 46
HEVC/x265 Lady and the Tramp - Lilli e il vagabondo 1 (1955)...
1.41 GB 2019-09-27 22:22:09 35 31




Trackers:
udp://tracker.coppersurfer.tk:6969/announce

Lilli e il vagabondo-Lady and the Tramp (2019) ITA-ENG Ac3 5.1 WEBRip 1080p H264 [ArMor]
Files
Lilli e il vagabondo-Lady and the Tramp (2019) ITA-ENG Ac3 5.1 WEBRip 1080p H264 [ArMor].mkv (3.16 GB)
Lilli.e.il.Vagabondo.2019.ITA-ENG.WEBDL.1080p_ita.srt (95.74 kB)
Lilli.e.il.Vagabondo.2019.ITA-ENG.WEBDL_ita_forced.srt (456.00 B)
MV5BM2U3ZDBkYWU[email protected]@._V1_SY1000_CR0,0,674,1000_AL_.jpg (146.17 kB)


Comments:
No comments still posted
Powered by TT | Page Generated In 0.666461 secs.
| RSS Feed | Feed Info