Warning! Use a VPN When Downloading Torrents!
Your IP Address is .   Location is
Your Internet Provider is tracking your torrent activity!  Hide your IP ADDRESS with a VPN!
We strongly recommend using ExpressVPN to anonymize your torrenting. 30 Day Money Back Guarantee!
Try it Now!

Wash your hands... Stay home, Stay Safe and Play Online @ Slotslights.com

First Cams

Xvid/x264



Non-English

Site Friends
      ETTV

      Torrentz2

      Free Tutorials

      Free Courses Online

      Nulled Premium

      Aiosearch




Cold Blood Legacy-Senza pace (2019) ITA-ENG Ac3 5.1 BDRip 1080p H264 [ArMor]


Download torrent:      
Info Hash:  42479153816cd7a232d721c63e0bdd6787469884
Category:  Movies > HD
Torrent language:  English  
Seeds | Leech:  75 | 35
Complete:   2,042
Health:   
Total Size:  2.74 GB
Added By:        ArMor
Date Added:  25-03-2020 06:30:am | Last Edit:  28-03-2020 09:09:pm

Un système d'onglets en javascript
Description Trackers Files 4 Comments 0 Download













General
Unique ID                                : 225277658047295178346419174377463345489 (0xA97AE6140D592147A7927B42C30DF151)
Complete name                            : Cold Blood Legacy-Senza pace (2019) ITA-ENG Ac3 5.1 BDRip 1080p H264 [ArMor].mkv
Format                                   : Matroska
Format version                           : Version 4
File size                                : 2.73 GiB
Duration                                 : 1 h 31 min
Overall bit rate                         : 4 269 kb/s
Encoded date                             : UTC 2020-03-24 07:39:45
Writing application                      : HandBrake 1.2.0 2018121700
Writing library                          : Lavf58.20.100
ErrorDetectionType                       : Per level 1

Video
ID                                       : 1
Format                                   : AVC
Format/Info                              : Advanced Video Codec
Format profile                           : [email protected]
Format settings                          : CABAC / 4 Ref Frames
Format settings, CABAC                   : Yes
Format settings, Reference frames        : 4 frames
Codec ID                                 : V_MPEG4/ISO/AVC
Duration                                 : 1 h 31 min
Bit rate                                 : 3 288 kb/s
Nominal bit rate                         : 3 500 kb/s
Width                                    : 1 920 pixels
Height                                   : 804 pixels
Display aspect ratio                     : 2.40:1
Frame rate mode                          : Constant
Frame rate                               : 24.000 FPS
Color space                              : YUV
Chroma subsampling                       : 4:2:0
Bit depth                                : 8 bits
Scan type                                : Progressive
Bits/(Pixel*Frame)                       : 0.089
Stream size                              : 2.10 GiB (77%)
Writing library                          : x264 core 157 r2935 545de2f
Encoding settings                        : cabac=1 / ref=2 / deblock=1:0:0 / analyse=0x1:0x111 / me=hex / subme=6 / psy=1 / psy_rd=1.00:0.00 / mixed_ref=1 / me_range=16 / chroma_me=1 / trellis=1 / 8x8dct=0 / cqm=0 / deadzone=21,11 / fast_pskip=1 / chroma_qp_offset=-2 / threads=18 / lookahead_threads=3 / sliced_threads=0 / nr=0 / decimate=1 / interlaced=0 / bluray_compat=0 / constrained_intra=0 / bframes=3 / b_pyramid=2 / b_adapt=1 / b_bias=0 / direct=1 / weightb=1 / open_gop=0 / weightp=1 / keyint=240 / keyint_min=24 / scenecut=40 / intra_refresh=0 / rc_lookahead=30 / rc=abr / mbtree=1 / bitrate=3500 / ratetol=1.0 / qcomp=0.60 / qpmin=0 / qpmax=69 / qpstep=4 / vbv_maxrate=50000 / vbv_bufsize=62500 / nal_hrd=none / filler=0 / ip_ratio=1.40 / aq=1:1.00
Default                                  : Yes
Forced                                   : No
Color range                              : Limited
Color primaries                          : BT.709
Transfer characteristics                 : BT.709
Matrix coefficients                      : BT.709

Audio #1
ID                                       : 2
Format                                   : AC-3
Format/Info                              : Audio Coding 3
Commercial name                          : Dolby Digital
Codec ID                                 : A_AC3
Duration                                 : 1 h 31 min
Bit rate mode                            : Constant
Bit rate                                 : 448 kb/s
Channel(s)                               : 6 channels
Channel layout                           : L R C LFE Ls Rs
Sampling rate                            : 48.0 kHz
Frame rate                               : 31.250 FPS (1536 SPF)
Compression mode                         : Lossy
Stream size                              : 293 MiB (10%)
Title                                    : Surround
Language                                 : Italian
Service kind                             : Complete Main
Default                                  : Yes
Forced                                   : No

Audio #2
ID                                       : 3
Format                                   : AC-3
Format/Info                              : Audio Coding 3
Commercial name                          : Dolby Digital
Codec ID                                 : A_AC3
Duration                                 : 1 h 31 min
Bit rate mode                            : Constant
Bit rate                                 : 448 kb/s
Channel(s)                               : 6 channels
Channel layout                           : L R C LFE Ls Rs
Sampling rate                            : 48.0 kHz
Frame rate                               : 31.250 FPS (1536 SPF)
Compression mode                         : Lossy
Stream size                              : 293 MiB (10%)
Title                                    : Surround
Language                                 : English
Service kind                             : Complete Main
Default                                  : No
Forced                                   : No



Similar Torrents
Type Name Size Added S L
h.264/x264 Cold.Blood.2019.HDRip.XviD.AC3-EVO[EtMovies]
1.32 GB 2019-07-05 08:18:23 2100 907
Divx/Xvid Cold.Blood.Legacy.2019.BRRip.XviD.AC3-EVO
1.34 GB 2019-07-27 17:55:56 1884 452
HEVC/x265 Cold Blood (2019) AC3 5.1 ITA.ENG 1080p.H265 sub N...
1.90 GB 2020-01-14 00:03:07 1182 463
HD Cold Blood Legacy 2019 Blu Ray 1080p. H264 Ita Eng...
2.40 GB 2020-01-13 21:42:05 1022 939
Dubs/Dual Audio Cold Blood (2019) 720p HDRip [Hindi-Dub] Dual-Audi...
849.41 MB 2019-11-18 13:34:36 689 207
HD Cold Blood (2019).720p.H264.ita.eng.Ac3-5.1.sub.it...
1.77 GB 2020-01-18 18:21:11 573 168
HEVC/x265 Cold Blood 2019 720p BluRay HEVC x265-RMTeam
445.37 MB 2019-09-08 22:23:25 536 360
Movie Hot Nights Cold Blood (Digital Playground) XXX WEB...
1.62 GB 2019-02-18 18:47:56 406 150
h.264/x264 Cold.Blood.2019.HDRip.AC3.x264-CMRG[EtMovies]
1.29 GB 2019-07-05 06:34:53 396 126
Movie Hot Nights, Cold Blood (Digital Playground) 2019 W...
1.62 GB 2019-02-14 06:50:35 362 454




Trackers:
udp://tracker.coppersurfer.tk:6969/announce

Cold Blood Legacy-Senza pace (2019) ITA-ENG Ac3 5.1 BDRip 1080p H264 [ArMor]
Files
Cold Blood Legacy-Senza pace (2019) ITA-ENG Ac3 5.1 BDRip 1080p H264 [ArMor].mkv (2.73 GB)
Cold.Blood.subti_track2_ita.sup (12.44 MB)
Cold.Blood.subti_track3_ita_forced.sup (29.56 kB)
MV5BZTBmYzNmYjIt[email protected]._V1_SY1000_CR0,0,674,1000_AL_.jpg (103.66 kB)


Comments:
No comments still posted
Powered by TT | Page Generated In 2.450520 secs.
| RSS Feed | Feed Info