Warning! Use a VPN When Downloading Torrents!
Your IP Address is .   Location is
Your Internet Provider is tracking your torrent activity!  Hide your IP ADDRESS with a VPN!
We strongly recommend using ExpressVPN to anonymize your torrenting. 30 Day Money Back Guarantee!
Try it Now!

Wash your hands... Stay home, Stay Safe and Play Online @ Slotslights.com

First Cams

Xvid/x264



Non-English

Site Friends
      ETTV

      Torrentz2

      Free Tutorials

      Free Courses Online

      Nulled Premium

      Aiosearch




Buttiamo giu l'uomo-Blow the Man Down (2019) ITA-ENG Ac3 5.1 WEBRip 1080p H264 [ArMor]


Download torrent:      
Info Hash:  1a4291b48d78e9605a332f8ed028c05cfcd1c5a3
Category:  Movies > HD
Torrent language:  English  
Seeds | Leech:  190 | 89
Complete:   2,281
Health:   
Total Size:  2.75 GB
Added By:        ArMor
Date Added:  25-03-2020 06:14:am | Last Edit:  27-03-2020 05:09:am

Un système d'onglets en javascript
Description Trackers Files 4 Comments 0 Download













General
Unique ID                                : 228485237022338293514198159295555894313 (0xABE4A7EE836581B552A3B60BFA74FC29)
Complete name                            : Buttiamo giu l'uomo-Blow the Man Down (2019) ITA-ENG Ac3 5.1 WEBRip 1080p H264 [ArMor].mkv
Format                                   : Matroska
Format version                           : Version 4
File size                                : 2.75 GiB
Duration                                 : 1 h 31 min
Overall bit rate                         : 4 312 kb/s
Movie name                               : CineBlog01HD
Encoded date                             : UTC 2020-03-22 06:02:51
Writing application                      : HandBrake 1.2.0 2018121700
Writing library                          : Lavf58.20.100
ErrorDetectionType                       : Per level 1

Video
ID                                       : 1
Format                                   : AVC
Format/Info                              : Advanced Video Codec
Format profile                           : [email protected]
Format settings                          : CABAC / 4 Ref Frames
Format settings, CABAC                   : Yes
Format settings, Reference frames        : 4 frames
Codec ID                                 : V_MPEG4/ISO/AVC
Duration                                 : 1 h 31 min
Bit rate                                 : 3 331 kb/s
Nominal bit rate                         : 3 500 kb/s
Width                                    : 1 920 pixels
Height                                   : 1 040 pixels
Display aspect ratio                     : 1.85:1
Frame rate mode                          : Constant
Frame rate                               : 23.976 (24000/1001) FPS
Color space                              : YUV
Chroma subsampling                       : 4:2:0
Bit depth                                : 8 bits
Scan type                                : Progressive
Bits/(Pixel*Frame)                       : 0.070
Stream size                              : 2.13 GiB (77%)
Writing library                          : x264 core 157 r2935 545de2f
Encoding settings                        : cabac=1 / ref=2 / deblock=1:0:0 / analyse=0x1:0x111 / me=hex / subme=6 / psy=1 / psy_rd=1.00:0.00 / mixed_ref=1 / me_range=16 / chroma_me=1 / trellis=1 / 8x8dct=0 / cqm=0 / deadzone=21,11 / fast_pskip=1 / chroma_qp_offset=-2 / threads=18 / lookahead_threads=3 / sliced_threads=0 / nr=0 / decimate=1 / interlaced=0 / bluray_compat=0 / constrained_intra=0 / bframes=3 / b_pyramid=2 / b_adapt=1 / b_bias=0 / direct=1 / weightb=1 / open_gop=0 / weightp=1 / keyint=240 / keyint_min=24 / scenecut=40 / intra_refresh=0 / rc_lookahead=30 / rc=abr / mbtree=1 / bitrate=3500 / ratetol=1.0 / qcomp=0.60 / qpmin=0 / qpmax=69 / qpstep=4 / vbv_maxrate=50000 / vbv_bufsize=62500 / nal_hrd=none / filler=0 / ip_ratio=1.40 / aq=1:1.00
Default                                  : Yes
Forced                                   : No
Color range                              : Limited
Color primaries                          : BT.709
Transfer characteristics                 : BT.709
Matrix coefficients                      : BT.709

Audio #1
ID                                       : 2
Format                                   : AC-3
Format/Info                              : Audio Coding 3
Commercial name                          : Dolby Digital
Codec ID                                 : A_AC3
Duration                                 : 1 h 31 min
Bit rate mode                            : Constant
Bit rate                                 : 448 kb/s
Channel(s)                               : 6 channels
Channel layout                           : L R C LFE Ls Rs
Sampling rate                            : 48.0 kHz
Frame rate                               : 31.250 FPS (1536 SPF)
Compression mode                         : Lossy
Stream size                              : 293 MiB (10%)
Title                                    : Surround
Language                                 : Italian
Service kind                             : Complete Main
Default                                  : Yes
Forced                                   : No

Audio #2
ID                                       : 3
Format                                   : AC-3
Format/Info                              : Audio Coding 3
Commercial name                          : Dolby Digital
Codec ID                                 : A_AC3
Duration                                 : 1 h 31 min
Bit rate mode                            : Constant
Bit rate                                 : 448 kb/s
Channel(s)                               : 6 channels
Channel layout                           : L R C LFE Ls Rs
Sampling rate                            : 48.0 kHz
Frame rate                               : 31.250 FPS (1536 SPF)
Compression mode                         : Lossy
Stream size                              : 293 MiB (10%)
Title                                    : Surround
Language                                 : English
Service kind                             : Complete Main
Default                                  : No
Forced                                   : No






Trackers:
udp://tracker.coppersurfer.tk:6969/announce

Buttiamo giu l'uomo-Blow the Man Down (2019) ITA-ENG Ac3 5.1 WEBRip 1080p H264 [ArMor]
Files
Buttiamo giu l'uomo-Blow the Man Down (2019) ITA-ENG Ac3 5.1 WEBRip 1080p H264 [ArMor].mkv (2.75 GB)
Buttiamo.giu.l.uomo.2020.ITA-ENG.WEBDL.1080p_ita.srt (55.91 kB)
Buttiamo.giu.l.uomo.2020.ITA-ENG.WEBDL.1080p_ita_forced.srt (711.00 B)
MV5BYmM3MDlkNDIt[email protected]._V1_SY1000_SX675_AL_.jpg (73.38 kB)


Comments:
No comments still posted
Powered by TT | Page Generated In 1.055615 secs.
| RSS Feed | Feed Info