Warning! Use a VPN When Downloading Torrents!
Your IP Address is .   Location is
Your Internet Provider is tracking your torrent activity!  Hide your IP ADDRESS with a VPN!
We strongly recommend using ExpressVPN to anonymize your torrenting. 30 Day Money Back Guarantee!
Try it Now!

Wash your hands... Stay home, Stay Safe and Play Online @ Slotslights.com

First Cams

Xvid/x264



Non-English

Site Friends
      ETTV

      Torrentz2

      Free Tutorials

      Free Courses Online

      Nulled Premium

      Aiosearch




Yeh Saali Aashiqui (2019) Hindi 720p Zee5 WEB-DL x264 AAC ESub 800MB [HDWebMovies]


Download torrent:      
Info Hash:  5e19ee1ae926152b11b7a87f28a103321fe91760
Category:  Movies > HD
Torrent language:  Hindi  
Seeds | Leech:  609 | 354
Complete:   3,587
Health:   
Total Size:  865.65 MB
Added By:        Suryadipta
Date Added:  24-03-2020 08:50:pm | Last Edit:  27-03-2020 04:55:am

IMDB
Yeh Saali Aashiqui
Yeh Saali Aashiqui Released 29 Nov 2019

Genre Thriller

Director Cherag Ruparel

Writer Vardhan Puri, Cherag Ruparel

Actors Vardhan Puri, Shivaleeka Oberoi, Jessey Lever, Amit Arora

Plot When Sahil met Mittee in hotel management school, it was love at first sight for both of them. Their love was everything - picture perfect and flawless. But an unlikely event at school ...

Link http://www.imdb.com/title/tt10443846

Last Updated 08-04-2020 09:48:27
8.1

Votes 143

Un système d'onglets en javascript
Description Trackers Files 1 Comments 0 Download

Visit Our Site https://hdwebmovies.pw






Movie name :

Yeh Saali Aashiqui (2019) Hindi 720p Zee5 WEB-DL x264 AAC ESub 800MB [HDWebMovies]


General
Format : Matroska
Format version : Version 4
File size : 866 MiB
Duration : 2 h 7 min
Overall bit rate : 952 kb/s
Encoded date : UTC 2020-03-24 19:54:23
Writing application : mkvmerge v31.0.0 ('Dolores In A Shoestand') 64-bit
Writing library : libebml v1.3.6 + libmatroska v1.4.9 / Lavf58.29.100

Video
ID : 1
Format : AVC
Format/Info : Advanced Video Codec
Format profile : [email protected]
Format settings : CABAC / 4 Ref Frames
Format settings, CABAC : Yes
Format settings, Reference frames : 4 frames
Codec ID : V_MPEG4/ISO/AVC
Duration : 2 h 7 min
Bit rate : 901 kb/s
Width : 1 274 pixels
Height : 720 pixels
Display aspect ratio : 16:9
Frame rate mode : Constant
Frame rate : 25.000 FPS
Color space : YUV
Chroma subsampling : 4:2:0
Bit depth : 8 bits
Scan type : Progressive
Bits/(Pixel*Frame) : 0.039
Stream size : 820 MiB (95%)
Writing library : x264 core 152 r2854 e9a5903
Default : Yes
Forced : No

Audio
ID : 2
Format : AAC LC
Format/Info : Advanced Audio Codec Low Complexity
Codec ID : A_AAC-2
Duration : 2 h 7 min
Bit rate : 48.0 kb/s
Channel(s) : 1 channel
Channel layout : C
Sampling rate : 44.1 kHz
Frame rate : 43.066 FPS (1024 SPF)
Compression mode : Lossy
Stream size : 43.6 MiB (5%)
Writing library : Lavc58.54.100 libfdk_aac
Language : Hindi
Default : Yes
Forced : No

Text
ID : 3
Format : UTF-8
Codec ID : S_TEXT/UTF8
Codec ID/Info : UTF-8 Plain Text
Duration : 2 h 5 min
Bit rate : 53 b/s
Count of elements : 1609
Stream size : 49.5 KiB (0%)
Language : English
Default : Yes
Forced : No












Similar Torrents
Type Name Size Added S L
Non-English Yeh Saali Aashiqui 2019 WebRip Hindi 720p x264 AAC...
1.10 GB 2020-03-25 03:25:09 1739 1324
HD Yeh Saali Aashiqui (2019) Hindi 720p HDRip x264 AA...
998.09 MB 2020-03-24 22:00:08 80 12
HD Yeh Saali Aashiqui (2019) Hindi 1080p HDRip x264 A...
2.07 GB 2020-03-25 14:48:00 58 8




Trackers:
http://tracker.nyap2p.com:8080/announce

Yeh Saali Aashiqui (2019) Hindi 720p Zee5 WEB-DL x264 AAC ESub 800MB [HDWebMovies]
Files
Yeh Saali Aashiqui (2019) Hindi 720p Zee5 WEB-DL x264 AAC ESub 800MB -BOngRockers.mkv (865.65 MB)


Comments:
No comments still posted
Powered by TT | Page Generated In 1.210218 secs.
| RSS Feed | Feed Info