Warning! Use a VPN When Downloading Torrents!
Your IP Address is .   Location is
Your Internet Provider is tracking your torrent activity!  Hide your IP ADDRESS with a VPN!
We strongly recommend using ExpressVPN to anonymize your torrenting. 30 Day Money Back Guarantee!
Try it Now!

Wash your hands... Stay home, Stay Safe and Play Online @ Slotslights.com

First Cams

Xvid/x264



Non-English

Site Friends
      ETTV

      Torrentz2

      Free Tutorials

      Free Courses Online

      Nulled Premium

      Aiosearch




Jumanji - The Next Level (2019) (1080p Webrip x265 10bit AC3 5.1 - ArcX)[TAoE].mkv


Download torrent:      
Info Hash:  69ec0d0438e589325787cd51b2ab97af597c5ea2
Category:  Movies > HEVC/x265
Torrent language:  English  
Seeds | Leech:  266 | 595
Complete:   409
Health:   
Total Size:  3.39 GB
Added By:        Goki Site FriendSuperman
Date Added:  28-02-2020 04:06:am | Last Edit:  28-02-2020 07:05:am

IMDB
Jumanji: The Next Level
Jumanji: The Next Level Released 13 Dec 2019

Genre Action, Adventure, Comedy, Fantasy

Director Jake Kasdan

Writer Jake Kasdan, Jeff Pinkner, Scott Rosenberg, Chris Van Allsburg (based on the book "Jumanji" by)

Actors Dwayne Johnson, Kevin Hart, Jack Black, Karen Gillan

Plot In Jumanji: The Next Level, the gang is back but the game has changed. As they return to rescue one of their own, the players will have to brave parts unknown from arid deserts to snowy mountains, to escape the world's most dangerous game.

Link https://www.imdb.com/title/tt7975244/

Last Updated 02-04-2020 20:58:18
6.8

Votes 107,783

Un système d'onglets en javascript
Description Trackers Files 1 Comments 0 Download





Jumanji: The Next Level (2019) IMDB












Media Information

Unique ID                                : 211737895252161872637252899246320355050 (0x9F4B3C3B7DCC116A0FB516E282B786EA)
Complete name                            : Jumanji - The Next Level (2019) (1080p Webrip x265 10bit AC3 5.1 - ArcX)[TAoE].mkv
Format                                   : Matroska
Format version                           : Version 4
File size                                : 3.39 GiB
Duration                                 : 2 h 3 min
Overall bit rate                         : 3 948 kb/s
Movie name                               : Jumanji - The Next Level (2019) (1080p Webrip x265 10bit AC3 5.1 - ArcX)[TAoE].mkv
Encoded date                             : UTC 2020-02-28 02:46:12
Writing application                      : mkvmerge v28.2.0 ('The Awakening') 64-bit
Writing library                          : libebml v1.3.6 + libmatroska v1.4.9

Video
ID                                       : 1
Format                                   : HEVC
Format/Info                              : High Efficiency Video Coding
Format profile                           : Main [email protected]@Main
Codec ID                                 : V_MPEGH/ISO/HEVC
Duration                                 : 2 h 3 min
Bit rate                                 : 3 562 kb/s
Width                                    : 1 920 pixels
Height                                   : 1 080 pixels
Display aspect ratio                     : 16:9
Frame rate mode                          : Constant
Frame rate                               : 23.976 (24000/1001) FPS
Color space                              : YUV
Chroma subsampling                       : 4:2:0
Bit depth                                : 10 bits
Bits/(Pixel*Frame)                       : 0.072
Stream size                              : 3.06 GiB (90%)
Writing library                          : x265 3.2.1+3-b4b2ecac21f6:[Windows][MSVC 1924][64 bit] 10bit
Encoding settings                        : cpuid=1111039 / frame-threads=3 / numa-pools=12 / wpp / no-pmode / no-pme / no-psnr / no-ssim / log-level=2 / input-csp=1 / input-res=1920x1080 / interlace=0 / total-frames=0 / level-idc=0 / high-tier=1 / uhd-bd=0 / ref=4 / no-allow-non-conformance / no-repeat-headers / annexb / no-aud / no-hrd / info / hash=0 / no-temporal-layers / open-gop / min-keyint=23 / keyint=250 / gop-lookahead=0 / bframes=8 / b-adapt=2 / b-pyramid / bframe-bias=0 / rc-lookahead=80 / lookahead-slices=4 / scenecut=40 / radl=0 / no-splice / no-intra-refresh / ctu=64 / min-cu-size=8 / no-rect / no-amp / max-tu-size=32 / tu-inter-depth=1 / tu-intra-depth=1 / limit-tu=0 / rdoq-level=2 / dynamic-rd=0.00 / no-ssim-rd / signhide / no-tskip / nr-intra=0 / nr-inter=0 / no-constrained-intra / no-strong-intra-smoothing / max-merge=3 / limit-refs=3 / limit-modes / me=3 / subme=5 / merange=57 / temporal-mvp / no-hme / weightp / no-weightb / no-analyze-src-pics / deblock=0:0 / sao / no-sao-non-deblock / rd=4 / selective-sao=4 / no-early-skip / rskip / no-fast-intra / no-tskip-fast / no-cu-lossless / no-b-intra / no-splitrd-skip / rdpenalty=0 / psy-rd=1.30 / psy-rdoq=2.00 / no-rd-refine / no-lossless / cbqpoffs=0 / crqpoffs=0 / rc=crf / crf=20.0 / qcomp=0.60 / qpstep=4 / stats-write=0 / stats-read=0 / ipratio=1.40 / pbratio=1.30 / aq-mode=2 / aq-strength=1.10 / cutree / zone-count=0 / no-strict-cbr / qg-size=32 / no-rc-grain / qpmax=69 / qpmin=0 / no-const-vbv / sar=1 / overscan=0 / videoformat=5 / range=0 / colorprim=2 / transfer=2 / colormatrix=2 / chromaloc=0 / display-window=0 / cll=0,0 / min-luma=0 / max-luma=1023 / log2-max-poc-lsb=8 / vui-timing-info / vui-hrd-info / slices=1 / no-opt-qp-pps / no-opt-ref-list-length-pps / no-multi-pass-opt-rps / scenecut-bias=0.05 / no-opt-cu-delta-qp / no-aq-motion / no-hdr / no-hdr-opt / no-dhdr10-opt / no-idr-recovery-sei / analysis-reuse-level=5 / scale-factor=0 / refine-intra=0 / refine-inter=0 / refine-mv=1 / refine-ctu-distortion=0 / no-limit-sao / ctu-info=0 / no-lowpass-dct / refine-analysis-type=0 / copy-pic=1 / max-ausize-factor=1.0 / no-dynamic-refine / no-single-sei / no-hevc-aq / no-svt / no-field / qp-adaptation-range=1.00
Default                                  : Yes
Forced                                   : No

Audio
ID                                       : 2
Format                                   : AC-3
Format/Info                              : Audio Coding 3
Commercial name                          : Dolby Digital
Codec ID                                 : A_AC3
Duration                                 : 2 h 3 min
Bit rate mode                            : Constant
Bit rate                                 : 384 kb/s
Channel(s)                               : 6 channels
Channel layout                           : L R C LFE Ls Rs
Sampling rate                            : 48.0 kHz
Frame rate                               : 31.250 FPS (1536 SPF)
Compression mode                         : Lossy
Delay relative to video                  : 6 ms
Stream size                              : 338 MiB (10%)
Title                                    : English
Language                                 : English
Service kind                             : Complete Main
Default                                  : Yes
Forced                                   : No

Text
ID                                       : 3
Format                                   : UTF-8
Codec ID                                 : S_TEXT/UTF8
Codec ID/Info                            : UTF-8 Plain Text
Duration                                 : 1 h 52 min
Bit rate                                 : 58 b/s
Count of elements                        : 1719
Stream size                              : 48.5 KiB (0%)
Language                                 : English
Default                                  : No
Forced                                   : No

Source
1080p WEB-DL CM

Hello everyone,
We are TAoE, a small team of passionate encoders who love encoding. We try our best to provide you with high quality releases.
If you would like to join the team just drop us a comment or send us a message.



.........................................................................................................................................



Similar Torrents
Type Name Size Added S L
Divx/Xvid Jumanji.The.Next.Level.2019.HC.HDRip.XviD.AC3-EVO
1.38 GB 2020-02-13 07:20:04 4153 1777
Dubs/Dual Audio Jumanji The Next Level (2019) NEW SOURCE 720p HDCA...
985.98 MB 2019-12-13 18:42:29 2435 2318
Cam/TS Jumanji The Next Level (2019) 720p HDCAM Ads Blurr...
992.64 MB 2019-12-13 07:57:56 2231 1387
HD Jumanji.The.Next.Level.2019.1080p.KORSUB.FHDRip.H2...
3.77 GB 2020-02-13 19:57:48 1660 623
HD Jumanji.The.Next.Level.2019.1080p.HC.Sharp.HDRip.x...
2.73 GB 2020-02-13 14:19:54 1647 583
Divx/Xvid Jumanji.The.Next.Level.2019.HDRip.XviD.AC3-EVO
1.45 GB 2020-02-26 17:19:51 1520 967
Dubs/Dual Audio Jumanji The Next Level 2019 BluRay 720p [Hindi 2.0...
1.14 GB 2020-03-20 14:17:26 1214 2421
HD Jumanji.The.Next.Level.2019.1080p.KORSUB.FHDRip.H2...
3.76 GB 2020-02-23 12:19:43 1202 528
Divx/Xvid Jumanji.The.Next.Level.2019.KORSUB.HDRip.XviD.MP3-...
1.72 GB 2020-02-13 09:47:32 1198 2114
Cam/TS Jumanji.The.Next.Level.2019.NEW.HDCAM.x264.AC3-ETR...
976.52 MB 2019-12-09 23:43:40 1129 803




Trackers:
udp://tracker.coppersurfer.tk:6969/announce

Jumanji - The Next Level (2019) (1080p Webrip x265 10bit AC3 5.1 - ArcX)[TAoE].mkv
Files
Jumanji - The Next Level (2019) (1080p Webrip x265 10bit AC3 5.1 - ArcX)[TAoE].mkv (3.39 GB)


Comments:
No comments still posted
Powered by TT | Page Generated In 2.106913 secs.
| RSS Feed | Feed Info