Warning! Use a VPN When Downloading Torrents!
Your IP Address is .   Location is
Your Internet Provider is tracking your torrent activity!  Hide your IP ADDRESS with a VPN!
We strongly recommend using ExpressVPN to anonymize your torrenting. 30 Day Money Back Guarantee!
Try it Now!

Wash your hands... Stay home, Stay Safe and Play Online @ Slotslights.com

First Cams

Xvid/x264



Non-English

Site Friends
      ETTV

      Torrentz2

      Free Tutorials

      Free Courses Online

      Nulled Premium

      Aiosearch




Jumanji: The Next Level (2019) 720p HDRip Multi Audios HQ [Hindi - Tamil- Eng(Org)] ESub 800MB BongR...


Download torrent:      
Info Hash:  c3048a09579a2b74e0f4aaff79e4941daca5d1be
Category:  Movies > Dubs/Dual Audio
Torrent language:  Hindi  
Seeds | Leech:  113 | 130
Complete:   142
Health:   
Total Size:  798.73 MB
Added By:        Suryadipta
Date Added:  26-02-2020 10:14:pm | Last Edit:  27-02-2020 06:33:am

IMDB
Jumanji: The Next Level
Jumanji: The Next Level Released 13 Dec 2019

Genre Action, Adventure, Comedy, Fantasy

Director Jake Kasdan

Writer Jake Kasdan, Jeff Pinkner, Scott Rosenberg, Chris Van Allsburg (based on the book "Jumanji" by)

Actors Dwayne Johnson, Kevin Hart, Jack Black, Karen Gillan

Plot In Jumanji: The Next Level, the gang is back but the game has changed. As they return to rescue one of their own, the players will have to brave parts unknown from arid deserts to snowy mountains, to escape the world's most dangerous game.

Link https://www.imdb.com/title/tt7975244/

Last Updated 05-04-2020 00:17:00
6.8

Votes 107,783

Un système d'onglets en javascript
Description Trackers Files 2 Comments 0 Download

Visit Our Site https://hdwebmovies.live






Movie name :

Jumanji: The Next Level (2019) 720p HDRip Multi Audios HQ [Hindi - Tamil- Eng(Org)] ESub 800MB BongRockers [HDWebMovies]

General
Format : Matroska
Format version : Version 4
File size : 799 MiB
Duration : 2 h 3 min
Overall bit rate mode : Variable
Overall bit rate : 907 kb/s
Movie name : www.HDWEMovies.live
Encoded date : UTC 2020-02-26 20:57:24
Writing application : mkvmerge v31.0.0 ('Dolores In A Shoestand') 64-bit
Writing library : libebml v1.3.6 + libmatroska v1.4.9

Video
ID : 1
Format : AVC
Format/Info : Advanced Video Codec
Format profile : [email protected]
Format settings : CABAC / 4 Ref Frames
Format settings, CABAC : Yes
Format settings, Reference frames : 4 frames
Codec ID : V_MPEG4/ISO/AVC
Duration : 2 h 3 min
Bit rate : 672 kb/s
Width : 1 280 pixels
Height : 536 pixels
Display aspect ratio : 2.40:1
Frame rate mode : Variable
Frame rate : 23.976 FPS
Color space : YUV
Chroma subsampling : 4:2:0
Bit depth : 8 bits
Scan type : Progressive
Bits/(Pixel*Frame) : 0.041
Stream size : 589 MiB (74%)
Title : www.HDWEMovies.live
Writing library : x264 core 152 r2854 e9a5903
Encoding settings : cabac=1 / ref=1 / deblock=1:0:0 / analyse=0x3:0x3 / me=dia / subme=1 / psy=1 / psy_rd=1.00:0.00 / mixed_ref=0 / me_range=16 / chroma_me=1 / trellis=0 / 8x8dct=1 / cqm=0 / deadzone=21,11 / fast_pskip=1 / chroma_qp_offset=0 / threads=17 / lookahead_threads=2 / sliced_threads=0 / nr=0 / decimate=1 / interlaced=0 / bluray_compat=0 / constrained_intra=0 / bframes=3 / b_pyramid=2 / b_adapt=1 / b_bias=0 / direct=1 / weightb=1 / open_gop=0 / weightp=1 / keyint=250 / keyint_min=25 / scenecut=40 / intra_refresh=0 / rc=abr / mbtree=0 / bitrate=672 / ratetol=1.0 / qcomp=0.60 / qpmin=0 / qpmax=69 / qpstep=4 / ip_ratio=1.40 / pb_ratio=1.30 / aq=1:1.00
Language : English
Default : Yes
Forced : No

Audio #1
ID : 2
Format : AAC LC
Format/Info : Advanced Audio Codec Low Complexity
Codec ID : A_AAC-2
Duration : 2 h 3 min
Bit rate : 96.0 kb/s
Channel(s) : 1 channel
Channel layout : C
Sampling rate : 44.1 kHz
Frame rate : 43.066 FPS (1024 SPF)
Compression mode : Lossy
Stream size : 84.7 MiB (11%)
Title : www.HDWEMovies.live
Language : English
Default : No
Forced : No

Audio #2
ID : 3
Format : AAC LC
Format/Info : Advanced Audio Codec Low Complexity
Codec ID : A_AAC-2
Duration : 2 h 3 min
Bit rate : 48.0 kb/s
Channel(s) : 1 channel
Channel layout : C
Sampling rate : 44.1 kHz
Frame rate : 43.066 FPS (1024 SPF)
Compression mode : Lossy
Stream size : 42.3 MiB (5%)
Title : www.HDWEMovies.live
Language : Tamil
Default : Yes
Forced : No

Audio #3
ID : 4
Format : MPEG Audio
Format version : Version 1
Format profile : Layer 3
Format settings : Joint stereo
Codec ID : A_MPEG/L3
Codec ID/Hint : MP3
Duration : 2 h 3 min
Bit rate mode : Variable
Bit rate : 90.3 kb/s
Nominal bit rate : 96.0 kb/s
Channel(s) : 2 channels
Sampling rate : 48.0 kHz
Frame rate : 41.667 FPS (1152 SPF)
Compression mode : Lossy
Stream size : 79.5 MiB (10%)
Title : www.HDWEMovies.live
Writing library : LAME3.99r
Encoding settings : -m j -V 4 -q 3 -lowpass 15.1 --abr 96
Language : Hindi
Default : No
Forced : No

Text
ID : 5
Format : ASS
Codec ID : S_TEXT/ASS
Codec ID/Info : Advanced Sub Station Alpha
Duration : 1 h 52 min
Bit rate : 104 b/s
Count of elements : 1719
Compression mode : Lossless
Stream size : 86.2 KiB (0%)
Title : www.HDWEMovies.live
Language : English
Default : Yes
Forced : No














Similar Torrents
Type Name Size Added S L
Cam/TS Jumanji: The Next Level (2019) NEW HDCAM 720p [Hin...
1.04 GB 2019-12-13 10:50:39 305 215
HD Jumanji: The Next Level (2019).720p.H264.ita.eng.A...
2.37 GB 2020-03-10 13:07:15 155 38
Audio Henry Jackman – Jumanji: The Next Level (Or...
148.49 MB 2019-12-07 07:57:20 151 78
Dubs/Dual Audio Jumanji: The Next Level (2019) HC HDRip 1080p [Hin...
1.08 GB 2020-02-13 13:57:18 136 80
HEVC/x265 Jumanji: The Next Level [2019] [1080p/HEVC/10bit/D...
3.15 GB 2020-02-27 19:34:37 104 285
h.264/x264 Jumanji: The Next Level (2019).SD.H264.ita.eng.Ac3...
1.78 GB 2020-03-10 15:58:19 104 16
HD Jumanji: Welcome to the Jungle(2017)1080p Blu-Ray ...
2.95 GB 2018-06-03 18:57:53 13 9




Trackers:
http://tracker.nyap2p.com:8080/announce

Jumanji: The Next Level (2019) 720p HDRip Multi Audios HQ [Hindi - Tamil- Eng(Org)] ESub 800MB BongRockers [HDWebMovies]
Files
Join Now.txt (198.00 B)
www.HDWebMovies.live - Jumanji 2 (2019) 720p HDRip Multi Audios HQ [Hindi - Tamil- Eng(Org)] ESub 800MB BongRockers.mkv (798.73 MB)


Comments:
No comments still posted
Powered by TT | Page Generated In 1.611578 secs.
| RSS Feed | Feed Info