Warning! Use a VPN When Downloading Torrents!
Your IP Address is .   Location is
Your Internet Provider is tracking your torrent activity!  Hide your IP ADDRESS with a VPN!
We strongly recommend using ExpressVPN to anonymize your torrenting. 30 Day Money Back Guarantee!
Try it Now!

Wash your hands... Stay home, Stay Safe and Play Online @ Slotslights.com

First Cams

Xvid/x264



Non-English

Site Friends
      ETTV

      Torrentz2

      Free Tutorials

      Free Courses Online

      Nulled Premium

      Aiosearch




Mission: Impossible (1996)Mp-4 X264 1080p AAC[DSD]


Download torrent:      
Info Hash:  5126e073cb7a21e87e11ca2b6e103a7b01b88f73
Category:  Movies > HD
Torrent language:  English  
Seeds | Leech:  165 | 18
Complete:   673
Health:   
Total Size:  1.74 GB
Added By:        dascubadude Site FriendMan
Date Added:  23-01-2020 06:39:pm | Last Edit:  24-01-2020 03:21:pm

Un système d'onglets en javascript
Description Trackers Files 1 Comments 0 Download

Seedbox!



Mission: Impossible (1996)
1080p Blu-Ray Rip
Hash Code:
5126E073CB7A21E87E11CA2B6E103A7B01B88F73












Tap on image for IMDb Info for this film


General
Complete name                            : MISSION_IMPOSSIBLE.theatrical.mp4
Format                                   : MPEG-4
Format profile                           : Base Media / Version 2
Codec ID                                 : mp42 (mp42/isom/avc1)
File size                                : 1.74 GiB
Duration                                 : 1 h 50 min
Overall bit rate mode                    : Variable
Overall bit rate                         : 2 256 kb/s
Movie name                               : 00752312_MISSION_IMPOSSIBLE.theatrical
Recorded date                            : 2020
Encoded date                             : UTC 2020-01-23 02:37:39
Tagged date                              : UTC 2020-01-23 03:23:29
Writing application                      : DVDFab 11.0.6.8
Cover                                    : Yes

Video
ID                                       : 1
Format                                   : AVC
Format/Info                              : Advanced Video Codec
Format profile                           : [email protected]
Format settings                          : CABAC / 2 Ref Frames
Format settings, CABAC                   : Yes
Format settings, RefFrames               : 2 frames
Format settings, GOP                     : M=1, N=24
Codec ID                                 : avc1
Codec ID/Info                            : Advanced Video Coding
Duration                                 : 1 h 50 min
Source duration                          : 1 h 50 min
Bit rate mode                            : Variable
Bit rate                                 : 1 791 kb/s
Maximum bit rate                         : 2 743 kb/s
Width                                    : 1 916 pixels
Height                                   : 796 pixels
Display aspect ratio                     : 2.40:1
Frame rate mode                          : Constant
Frame rate                               : 23.976 (24000/1001) FPS
Color space                              : YUV
Chroma subsampling                       : 4:2:0
Bit depth                                : 8 bits
Scan type                                : Progressive
Bits/(Pixel*Frame)                       : 0.049
Stream size                              : 1.38 GiB (79%)
Source stream size                       : 1.38 GiB (79%)
Encoded date                             : UTC 2020-01-23 02:37:39
Tagged date                              : UTC 2020-01-23 03:23:29
Color primaries                          : BT.709
Transfer characteristics                 : BT.709
Matrix coefficients                      : BT.709
Menus                                    : 5

Audio
ID                                       : 2
Format                                   : AAC
Format/Info                              : Advanced Audio Codec
Format profile                           : LC
Codec ID                                 : mp4a-40-2
Duration                                 : 1 h 50 min
Bit rate mode                            : Variable
Bit rate                                 : 452 kb/s
Channel(s)                               : 6 channels
Channel positions                        : Front: L C R, Side: L R, LFE
Sampling rate                            : 48.0 kHz
Frame rate                               : 46.875 FPS (1024 SPF)
Compression mode                         : Lossy
Stream size                              : 353 MiB (20%)
Title                                    : English (aac 5.1)
Language                                 : English
Default                                  : Yes
Alternate group                          : 1
Encoded date                             : UTC 2020-01-23 02:37:39
Tagged date                              : UTC 2020-01-23 03:23:29

Text #1
ID                                       : 3
Format                                   : VobSub
Codec ID                                 : mp4s-E0
Codec ID/Info                            : The same subtitle format used on DVDs
Duration                                 : 1 h 45 min
Bit rate mode                            : Variable
Bit rate                                 : 6 363 b/s
Maximum bit rate                         : 4 249 Mb/s
Stream size                              : 4.82 MiB (0%)
Language                                 : English
Default                                  : Yes
Forced                                   : No
Alternate group                          : 2
Encoded date                             : UTC 2020-01-23 02:37:39
Tagged date                              : UTC 2020-01-23 03:22:07

Text #2
ID                                       : 4
Format                                   : VobSub
Codec ID                                 : mp4s-E0
Codec ID/Info                            : The same subtitle format used on DVDs
Duration                                 : 1 h 45 min
Bit rate mode                            : Variable
Bit rate                                 : 7 056 b/s
Maximum bit rate                         : 4 249 Mb/s
Stream size                              : 5.34 MiB (0%)
Language                                 : English
Default                                  : No
Forced                                   : No
Alternate group                          : 2
Encoded date                             : UTC 2020-01-23 02:37:39
Tagged date                              : UTC 2020-01-23 03:22:07



Similar Torrents
Type Name Size Added S L
Divx/Xvid Mission: Impossible - Fallout (2018) [BLURRED] [HD...
1.37 GB 2018-10-17 14:45:28 4013 1112
HD Mission: impossible Fallout (2018).IMAX.720p.H264....
2.85 GB 2018-11-22 15:23:54 1949 1047
HD Mission: Impossible – Fallout (2018) IMAX 1...
3.69 GB 2018-11-15 07:07:27 273 260
HD Mission: Impossible - Fallout (2018)Mp-4 X264 1080...
2.85 GB 2019-12-31 05:48:26 272 44
Video [EvilAngel]Leigh Raven - Anal Submission: Leigh Ga...
552.46 MB 2018-10-21 06:30:57 268 151
Video Victoria Voxxx - School of Submission: Day 4 (15.0...
739.82 MB 2019-01-17 19:23:23 230 82
Dubs/Dual Audio Mission: Impossible Fallout 2018 BRRip Dual Audio ...
1.44 GB 2018-11-29 18:24:02 213 123
HD Mission: Impossible - Rogue Nation (2015)Mp-4 X264...
2.08 GB 2020-01-08 12:09:37 195 22
Video [EvilAngel] Anal Submission: Leigh Gapes, Squirts ...
413.81 MB 2018-10-21 07:44:15 122 64
Video Victoria Voxxx - School of Submission: Day 3 (08.0...
777.41 MB 2019-01-09 12:57:01 107 45




Trackers:
udp://tracker.openbittorrent.com:80/announce

Mission: Impossible (1996)Mp-4 X264 1080p AAC[DSD]
Files
00752312_MISSION_IMPOSSIBLE.theatrical.mp4 (1.74 GB)


Comments:
No comments still posted
Powered by TT | Page Generated In 2.168496 secs.
| RSS Feed | Feed Info