Warning! Use a VPN When Downloading Torrents!
Your IP Address is .   Location is
Your Internet Provider is tracking your torrent activity!  Hide your IP ADDRESS with a VPN!
We strongly recommend using ExpressVPN to anonymize your torrenting. 30 Day Money Back Guarantee!
Try it Now!

Wash your hands... Stay home, Stay Safe and Play Online @ Slotslights.com

First Cams

Xvid/x264



Non-English

Site Friends
      ETTV

      Torrentz2

      Free Tutorials

      Free Courses Online

      Nulled Premium

      Aiosearch




Dark.Waters.2019.1080p.SCREENER.x264.DTS-NOGRP


Download torrent:      
Info Hash:  2097fd570d6e8f6532c959199579e263a378c2f8
Category:  Movies > HD
Torrent language:  English  
Seeds | Leech:  3,344 | 1,971
Complete:   41,964
Health:   
Total Size:  9.96 GB
Added By:        SirMadMax Superman
Date Added:  17-01-2020 04:23:pm | Last Edit:  18-01-2020 05:45:pm

Un système d'onglets en javascript
Description Trackers Files 2 Comments 0 Download


Plot: A corporate defense attorney takes on an environmental lawsuit against a chemical company that exposes a lengthy history of pollution.

Genre: Biography | Drama | History | Thriller
IMDB Rating: 7.6/10 From 3,924 Users
Directed by: Todd Haynes
Starring: Anne Hathaway , Mark Ruffalo , Tim Robbins , Bill Pullman

Video
ID : 1
Format : AVC
Format/Info : Advanced Video Codec
Format profile : [email protected]
Format settings : CABAC / 4 Ref Frames
Format settings, CABAC : Yes
Format settings, Reference frames : 4 frames
Codec ID : V_MPEG4/ISO/AVC
Duration : 2 h 7 min
Bit rate : 10 000 kb/s
Width : 1 920 pixels
Height : 804 pixels
Display aspect ratio : 2.40:1
Frame rate mode : Constant
Frame rate : 23.976 (24000/1001) FPS
Color space : YUV
Chroma subsampling : 4:2:0
Bit depth : 8 bits
Scan type : Progressive
Bits/(Pixel*Frame) : 0.270
Stream size : 8.62 GiB (87%)
Writing library : x264 core 148 r2748 97eaef2
Encoding settings : cabac=1 / ref=4 / deblock=1:0:0 / analyse=0x3:0x113 / me=umh / subme=9 / psy=1 / psy_rd=1.00:0.00 / mixed_ref=1 / me_range=16 / chroma_me=1 / trellis=2 / 8x8dct=1 / cqm=0 / deadzone=21,11 / fast_pskip=1 / chroma_qp_offset=-2 / threads=72 / lookahead_threads=6 / sliced_threads=0 / nr=0 / decimate=1 / interlaced=0 / bluray_compat=0 / constrained_intra=0 / bframes=3 / b_pyramid=2 / b_adapt=2 / b_bias=0 / direct=3 / weightb=1 / open_gop=0 / weightp=2 / keyint=250 / keyint_min=23 / scenecut=40 / intra_refresh=0 / rc_lookahead=50 / rc=abr / mbtree=1 / bitrate=10000 / ratetol=1.0 / qcomp=0.60 / qpmin=0 / qpmax=69 / qpstep=4 / ip_ratio=1.40 / aq=1:1.00
Language : English
Default : Yes
Forced : No

Audio
ID : 2
Format : DTS
Format/Info : Digital Theater Systems
Codec ID : A_DTS
Duration : 2 h 7 min
Bit rate mode : Constant
Bit rate : 1 509 kb/s
Channel(s) : 6 channels
Channel layout : C L R Ls Rs LFE
Sampling rate : 48.0 kHz
Frame rate : 93.750 FPS (512 SPF)
Bit depth : 24 bits
Compression mode : Lossy
Stream size : 1.34 GiB (13%)
Language : English
Default : Yes
Forced : No

Text
ID : 3
Format : UTF-8
Codec ID : S_TEXT/UTF8
Codec ID/Info : UTF-8 Plain Text
Duration : 1 h 59 min
Bit rate : 67 b/s
Count of elements : 1672
Stream size : 59.0 KiB (0%)
Language : English
Default : Yes
Forced : No

Menu
00:00:00.000 : en:Chapter 01
00:03:38.051 : en:Chapter 02
00:13:37.233 : en:Chapter 03
00:24:01.731 : en:Chapter 04
00:32:06.758 : en:Chapter 05
00:42:34.176 : en:Chapter 06
00:51:59.366 : en:Chapter 07
01:02:36.753 : en:Chapter 08
01:10:55.960 : en:Chapter 09
01:19:37.606 : en:Chapter 10
01:31:40.995 : en:Chapter 11
01:41:10.022 : en:Chapter 12
01:50:32.083 : en:Chapter 13
02:01:08.135 : en:Chapter 14




Similar Torrents
Type Name Size Added S L
h.264/x264 Dark.Waters.2019.SCREENER.x264-NOGRP
1.12 GB 2020-01-17 16:24:21 2102 828
Divx/Xvid Dark.Waters.2019.BDRip.XviD.AC3-EVO
1.32 GB 2020-02-22 16:18:33 1710 988
HD Dark.Waters.2019.1080p.SCREENER.AAC5.1.x264-Rapta
2.73 GB 2020-01-18 02:33:38 1583 465
Divx/Xvid Dark.Waters.2019.SCR.XviD.AC3-EVO
1.32 GB 2020-01-17 09:00:33 1203 676
HD Dark.Waters.2019.SCR.XviD.AC3-EVO[EtHD]
1.32 GB 2020-01-17 08:13:49 563 284
HD Dark.Waters.2019.1080p.Bluray.DTS-HD.MA.5.1.X264-E...
11.28 GB 2020-02-20 01:11:01 485 219
Cam/TS Dark Waters 2019 HDCAM x264-ETRG
992.94 MB 2019-11-30 13:06:25 471 229
Divx/Xvid Dark.Waters.2019.HDRip.XviD.AC3-EVO
1.32 GB 2020-02-17 16:15:42 468 449
Dubs/Dual Audio Dark Waters (2019) HDRip 720p [Hindi-Dub] Dual-Aud...
1.02 GB 2020-02-03 17:46:41 467 236
Divx/Xvid Dark.Waters.2019.HDRip.Scr.XviD.B4ND1T69
735.65 MB 2020-01-18 21:14:32 436 57




Trackers:
http://tracker.trackerfix.com:80/announce

Dark.Waters.2019.1080p.SCREENER.x264.DTS-NOGRP
Files
Dark.Waters.2019.1080p.SCREENER.x264.DTS-NOGRP.mkv (9.96 GB)
English.srt (123.97 kB)


Comments:
No comments still posted
Powered by TT | Page Generated In 0.687811 secs.
| RSS Feed | Feed Info