Warning! Use a VPN When Downloading Torrents!
Your IP Address is .   Location is
Your Internet Provider is tracking your torrent activity!  Hide your IP ADDRESS with a VPN!
We strongly recommend using Trust.Zone VPN to anonymize your torrenting. It's FREE!
Get VPN Now for FREE!
First Cams

Xvid/x264



Non-English

Site Friends
      ETTV

      Torrentz2

      Free Tutorials

      Free Courses Online

      Nulled Premium

      Aiosearch




Boston Legal (2004) Season 5 S05 (1080p AMZN WEB-DL x265 HEVC 10bit AAC 5.1 Vyndros)


Download torrent:      
Info Hash:  2e876dbec1ab13f91b91f2a2bbacda67a6995a09
Category:  TV  > HEVC/x265
Torrent language:  English  
Seeds | Leech:  269 | 267
Complete:   833
Health:   
Total Size:  12.72 GB
Added By:        Vyndros
Date Added:  14-01-2020 02:28:am | Last Edit:  14-01-2020 06:39:pm

IMDB
Boston Legal
Boston Legal Released 03 Oct 2004

Genre Comedy, Crime, Drama

Director N/A

Writer David E. Kelley

Actors James Spader, William Shatner, Candice Bergen, Rene Auberjonois

Plot Boston Legal is a spin-off of the long-running David E. Kelley series The Practice (1997), following the exploits of former Practice character Alan Shore (James Spader) at the legal firm of Crane, Poole, and Schmidt.

Link http://www.imdb.com/title/tt0402711

Last Updated 23-01-2020 10:50:35
8.4

Votes 40,919

Un système d'onglets en javascript
Description Trackers Files 13 Comments 0 Download










Media Information

General
Format                                   : Matroska
Format version                           : Version 4 / Version 2
File size                                : 1.01 GiB
Duration                                 : 43 min 37 s
Overall bit rate                         : 3 306 kb/s
Encoded date                             : UTC 2020-01-12 12:16:03
Writing application                      : mkvmerge v20.0.0 ('I Am The Sun') 64-bit
Writing library                          : libebml v1.3.5 + libmatroska v1.4.8
Writing frontend                         : StaxRip v1.7.0.6

Video
ID                                       : 1
Format                                   : HEVC
Format/Info                              : High Efficiency Video Coding
Format profile                           : Main [email protected]@Main
Codec ID                                 : V_MPEGH/ISO/HEVC
Duration                                 : 43 min 37 s
Bit rate                                 : 2 854 kb/s
Width                                    : 1 920 pixels
Height                                   : 1 080 pixels
Display aspect ratio                     : 16:9
Frame rate mode                          : Constant
Frame rate                               : 23.976 (24000/1001) FPS
Color space                              : YUV
Chroma subsampling                       : 4:2:0
Bit depth                                : 10 bits
Bits/(Pixel*Frame)                       : 0.057
Stream size                              : 891 MiB (86%)
Writing library                          : x265 3.2+5-354901970679:[Windows][GCC 9.2.0][64 bit] 10bit
Encoding settings                        : cpuid=1111039 / frame-threads=2 / numa-pools=4 / wpp / no-pmode / no-pme / no-psnr / ssim / log-level=2 / input-csp=1 / input-res=1920x1080 / interlace=0 / total-frames=62767 / level-idc=0 / high-tier=1 / uhd-bd=0 / ref=3 / no-allow-non-conformance / no-repeat-headers / annexb / no-aud / no-hrd / info / hash=0 / no-temporal-layers / open-gop / min-keyint=23 / keyint=250 / gop-lookahead=0 / bframes=8 / b-adapt=2 / b-pyramid / bframe-bias=0 / rc-lookahead=80 / lookahead-slices=6 / scenecut=40 / radl=0 / no-splice / no-intra-refresh / ctu=64 / min-cu-size=8 / no-rect / no-amp / max-tu-size=32 / tu-inter-depth=1 / tu-intra-depth=1 / limit-tu=0 / rdoq-level=0 / dynamic-rd=0.00 / no-ssim-rd / signhide / no-tskip / nr-intra=0 / nr-inter=0 / no-constrained-intra / no-strong-intra-smoothing / max-merge=3 / limit-refs=1 / no-limit-modes / me=3 / subme=5 / merange=57 / temporal-mvp / no-frame-dup / no-hme / weightp / no-weightb / no-analyze-src-pics / deblock=0:0 / sao / no-sao-non-deblock / rd=3 / selective-sao=4 / early-skip / no-rskip / no-fast-intra / no-tskip-fast / no-cu-lossless / b-intra / no-splitrd-skip / rdpenalty=0 / psy-rd=2.00 / psy-rdoq=0.00 / no-rd-refine / no-lossless / cbqpoffs=0 / crqpoffs=0 / rc=crf / crf=20.0 / qcomp=0.60 / qpstep=4 / stats-write=0 / stats-read=0 / ipratio=1.40 / pbratio=1.30 / aq-mode=3 / aq-strength=1.00 / cutree / zone-count=0 / no-strict-cbr / qg-size=32 / no-rc-grain / qpmax=69 / qpmin=0 / no-const-vbv / sar=0 / overscan=0 / videoformat=5 / range=0 / colorprim=2 / transfer=2 / colormatrix=2 / chromaloc=0 / display-window=0 / cll=0,0 / min-luma=0 / max-luma=1023 / log2-max-poc-lsb=8 / vui-timing-info / vui-hrd-info / slices=1 / no-opt-qp-pps / no-opt-ref-list-length-pps / no-multi-pass-opt-rps / scenecut-bias=0.05 / no-opt-cu-delta-qp / no-aq-motion / no-hdr / no-hdr-opt / no-dhdr10-opt / no-idr-recovery-sei / analysis-reuse-level=5 / scale-factor=0 / refine-intra=0 / refine-inter=0 / refine-mv=1 / refine-ctu-distortion=0 / no-limit-sao / ctu-info=0 / no-lowpass-dct / refine-analysis-type=0 / copy-pic=1 / max-ausize-factor=1.0 / no-dynamic-refine / no-single-sei / no-hevc-aq / no-svt / no-field / qp-adaptation-range=1.00
Default                                  : Yes
Forced                                   : No

Audio
ID                                       : 2
Format                                   : AAC
Format/Info                              : Advanced Audio Codec
Format profile                           : LC
Codec ID                                 : A_AAC
Duration                                 : 43 min 37 s
Bit rate                                 : 449 kb/s
Channel(s)                               : 6 channels
Channel positions                        : Front: L C R, Side: L R, LFE
Sampling rate                            : 48.0 kHz
Frame rate                               : 46.875 FPS (1024 spf)
Compression mode                         : Lossy
Stream size                              : 140 MiB (14%)
Language                                 : English
Default                                  : Yes
Forced                                   : No

Subtitle
ID                                       : 3
Format                                   : UTF-8
Codec ID                                 : S_TEXT/UTF8
Codec ID/Info                            : UTF-8 Plain Text
Duration                                 : 42 min 57 s
Bit rate                                 : 90 b/s
Count of elements                        : 881
Stream size                              : 28.5 KiB (0%)
Language                                 : English
Default                                  : No
Forced                                   : No

Source Information
Amazon WEB-DL


Similar Torrents
Type Name Size Added S L
HEVC/x265 Boston Legal (2004) Season 4 S04 (1080p AMZN WEB-D...
32.00 GB 2020-01-07 15:47:08 233 459
HEVC/x265 Boston Legal (2004) Season 3 S03 (1080p AMZN WEB-D...
32.79 GB 2019-10-30 00:38:52 209 443
HEVC/x265 Boston Legal (2004) Season 2 S02 (1080p AMZN WEB-D...
33.90 GB 2020-01-14 03:00:12 49 64
HEVC/x265 Boston Legal (2004) Season 1 S01 (1080p AMZN WEB-D...
15.38 GB 2020-01-14 02:41:58 42 23




Trackers:
udp://tracker.coppersurfer.tk:6969/announce

Boston Legal (2004) Season 5 S05 (1080p AMZN WEB-DL x265 HEVC 10bit AAC 5.1 Vyndros)
Files
Boston.Legal.S05E01.Smoke.Signals.1080p.10bit.AMZN.WEB-DL.AAC5.1.HEVC-Vyndros.mkv (1,010.33 MB)
Boston.Legal.S05E02.Guardians.and.Gatekeepers.1080p.10bit.AMZN.WEB-DL.AAC5.1.HEVC-Vyndros.mkv (942.64 MB)
Boston.Legal.S05E03.Dances.with.Wolves.1080p.10bit.AMZN.WEB-DL.AAC5.1.HEVC-Vyndros.mkv (961.53 MB)
Boston.Legal.S05E04.True.Love.1080p.10bit.AMZN.WEB-DL.AAC5.1.HEVC-Vyndros.mkv (934.43 MB)
Boston.Legal.S05E05.The.Bad.Seed.1080p.10bit.AMZN.WEB-DL.AAC5.1.HEVC-Vyndros.mkv (921.65 MB)
Boston.Legal.S05E06.Happy.Trails.1080p.10bit.AMZN.WEB-DL.AAC5.1.HEVC-Vyndros.mkv (1.09 GB)
Boston.Legal.S05E07.Mad.Cows.1080p.10bit.AMZN.WEB-DL.AAC5.1.HEVC-Vyndros.mkv (987.20 MB)
Boston.Legal.S05E08.Roe.1080p.10bit.AMZN.WEB-DL.AAC5.1.HEVC-Vyndros.mkv (1.05 GB)
Boston.Legal.S05E09.Kill,.Baby,.Kill.1080p.10bit.AMZN.WEB-DL.AAC5.1.HEVC-Vyndros.mkv (996.15 MB)
Boston.Legal.S05E10.Thanksgiving.1080p.10bit.AMZN.WEB-DL.AAC5.1.HEVC-Vyndros.mkv (1.15 GB)
Boston.Legal.S05E11.Juiced.1080p.10bit.AMZN.WEB-DL.AAC5.1.HEVC-Vyndros.mkv (1.01 GB)
Boston.Legal.S05E12.Made.in.China.(1).1080p.10bit.AMZN.WEB-DL.AAC5.1.HEVC-Vyndros.mkv (928.40 MB)
Boston.Legal.S05E13.Last.Call.(2).1080p.10bit.AMZN.WEB-DL.AAC5.1.HEVC-Vyndros.mkv (948.87 MB)


Comments:
No comments still posted
Powered by TT | Page Generated In 0.684890 secs.
| RSS Feed | Feed Info