Warning! Use a VPN When Downloading Torrents!
Your IP Address is .   Location is
Your Internet Provider is tracking your torrent activity!  Hide your IP ADDRESS with a VPN!
We strongly recommend using Trust.Zone VPN to anonymize your torrenting. It's FREE!
Get VPN Now for FREE!
First Cams

Xvid/x264



Non-English

Site Friends
      ETTV

      Torrentz2

      Free Tutorials

      Free Courses Online

      Nulled Premium

      Aiosearch




The Outsider (2020) S01E01 Fish in a Barrel 1080p AMZN Webrip x265 10bit EAC3 5.1 - Ainz


Download torrent:      
Info Hash:  a75787cdc9eac04a5dbfbf190a23973a88671ccb
Category:  TV  > HEVC/x265
Torrent language:  English  
Seeds | Leech:  561 | 243
Complete:   1,914
Health:   
Total Size:  1.23 GB
Added By:        Goki
Date Added:  14-01-2020 02:16:am | Last Edit:  14-01-2020 06:39:pm

IMDB
The Outsider
The Outsider Released 12 Jan 2020

Genre Thriller

Director N/A

Writer N/A

Actors Jason Bateman, Cynthia Erivo, John Gettier, Marc Menchaca

Plot Investigators are confounded over an unspeakable crime that's been committed.

Link http://www.imdb.com/title/tt8550800

Last Updated 20-01-2020 23:04:32

Un système d'onglets en javascript
Description Trackers Files 1 Comments 0 Download



The Outsider (2020) IMDB












Media Information

Unique ID                                : 292345278776067137030277574043116828508 (0xDBEFA71409BCDAEAA61161FCC330F75C)
Complete name                            : The Outsider (2020) S01E01 Fish in a Barrel 1080p AMZN Webrip x265 10bit EAC3 5.1 - Ainz
Format                                   : Matroska
Format version                           : Version 4
File size                                : 1.23 GiB
Duration                                 : 1h 0mn
Overall bit rate                         : 2 897 Kbps
Movie name                               : The Outsider (2020)
Encoded date                             : UTC 2020-01-13 13:14:21
Writing application                      : mkvmerge v42.0.0 ('Overtime') 64-bit
Writing library                          : libebml v1.3.10 + libmatroska v1.5.2 / Lavf58.29.100

Video
ID                                       : 1
Format                                   : HEVC
Format/Info                              : High Efficiency Video Coding
Format profile                           : Main [email protected]@Main
Codec ID                                 : V_MPEGH/ISO/HEVC
Duration                                 : 1h 0mn
Bit rate                                 : 2 255 Kbps
Width                                    : 1 920 pixels
Height                                   : 960 pixels
Display aspect ratio                     : 2.000
Frame rate mode                          : Constant
Frame rate                               : 23.976 (24000/1001) fps
Color space                              : YUV
Chroma subsampling                       : 4:2:0
Bit depth                                : 10 bits
Bits/(Pixel*Frame)                       : 0.051
Stream size                              : 981 MiB (78%)
Writing library                          : x265 3.2.1+1-b5c86a64bbbe:[Mac OS X][clang 11.0.0][64 bit] 10bit
Encoding settings                        : cpuid=1111039 / frame-threads=2 / wpp / no-pmode / no-pme / no-psnr / no-ssim / log-level=2 / input-csp=1 / input-res=1920x960 / interlace=0 / total-frames=0 / level-idc=0 / high-tier=1 / uhd-bd=0 / ref=4 / no-allow-non-conformance / no-repeat-headers / annexb / no-aud / no-hrd / info / hash=0 / no-temporal-layers / open-gop / min-keyint=24 / keyint=240 / gop-lookahead=0 / bframes=8 / b-adapt=2 / b-pyramid / bframe-bias=0 / rc-lookahead=80 / lookahead-slices=4 / scenecut=40 / radl=0 / no-splice / no-intra-refresh / ctu=64 / min-cu-size=8 / rect / no-amp / max-tu-size=32 / tu-inter-depth=1 / tu-intra-depth=1 / limit-tu=0 / rdoq-level=2 / dynamic-rd=0.00 / no-ssim-rd / signhide / no-tskip / nr-intra=0 / nr-inter=0 / no-constrained-intra / no-strong-intra-smoothing / max-merge=3 / limit-refs=3 / limit-modes / me=3 / subme=3 / merange=57 / temporal-mvp / no-hme / weightp / no-weightb / no-analyze-src-pics / deblock=0:0 / sao / no-sao-non-deblock / rd=4 / selective-sao=3 / no-early-skip / rskip / no-fast-intra / no-tskip-fast / no-cu-lossless / no-b-intra / no-splitrd-skip / rdpenalty=0 / psy-rd=0.00 / psy-rdoq=1.00 / no-rd-refine / no-lossless / cbqpoffs=0 / crqpoffs=0 / rc=crf / crf=19.0 / qcomp=0.60 / qpstep=4 / stats-write=0 / stats-read=0 / ipratio=1.40 / pbratio=1.30 / aq-mode=3 / aq-strength=1.00 / cutree / zone-count=0 / no-strict-cbr / qg-size=32 / no-rc-grain / qpmax=69 / qpmin=0 / no-const-vbv / sar=1 / overscan=0 / videoformat=5 / range=0 / colorprim=1 / transfer=1 / colormatrix=1 / chromaloc=0 / display-window=0 / cll=0,0 / min-luma=0 / max-luma=1023 / log2-max-poc-lsb=8 / vui-timing-info / vui-hrd-info / slices=1 / no-opt-qp-pps / no-opt-ref-list-length-pps / no-multi-pass-opt-rps / scenecut-bias=0.05 / no-opt-cu-delta-qp / no-aq-motion / no-hdr / no-hdr-opt / no-dhdr10-opt / no-idr-recovery-sei / analysis-reuse-level=5 / scale-factor=0 / refine-intra=0 / refine-inter=0 / refine-mv=1 / refine-ctu-distortion=0 / no-limit-sao / ctu-info=0 / no-lowpass-dct / refine-analysis-type=0 / copy-pic=1 / max-ausize-factor=1.0 / no-dynamic-refine / no-single-sei / no-hevc-aq / no-svt / no-field / qp-adaptation-range=1.00
Default                                  : Yes
Forced                                   : No
Color range                              : Limited
Color primaries                          : BT.709
Transfer characteristics                 : BT.709
Matrix coefficients                      : BT.709

Audio
ID                                       : 2
Format                                   : E-AC-3
Format/Info                              : Enhanced AC-3
Commercial name                          : Dolby Digital Plus
Codec ID                                 : A_EAC3
Duration                                 : 1h 0mn
Bit rate mode                            : Constant
Bit rate                                 : 640 Kbps
Channel(s)                               : 6 channels
Channel layout                           : L R C LFE Ls Rs
Sampling rate                            : 48.0 KHz
Frame rate                               : 31.250 fps (1536 SPF)
Compression mode                         : Lossy
Delay relative to video                  : 8ms
Stream size                              : 278 MiB (22%)
Title                                    : Surround
Language                                 : English
Service kind                             : Complete Main
Default                                  : Yes
Forced                                   : No

Text
ID                                       : 3
Format                                   : ASS
Codec ID                                 : S_TEXT/ASS
Codec ID/Info                            : Advanced Sub Station Alpha
Duration                                 : 1h 0mn
Bit rate                                 : 107 bps
Count of elements                        : 866
Compression mode                         : Lossless
Stream size                              : 47.5 KiB (0%)
Title                                    : SDH
Language                                 : English
Default                                  : No
Forced                                   : No

Source
The.Outsider.2020.S01E01.Fish.in.a.Barrel.1080p.AMZN.WEB-DL.DDP5.1.H.264-NTb.mkv (3.26 GB)
21544895724536393556752204899924635418 (0x1035655F1B3D1EFB96A1F6A04B20EF1A)

.........................................................................................................................................



Similar Torrents
Type Name Size Added S L
x264 The.Outsider.2020.S01E03.WEBRip.x264-TBS[ettv]
181.41 MB 2020-01-20 04:45:43 11396 2823
x264 The.Outsider.2020.S01E01.PROPER.WEBRip.x264-TBS[et...
190.01 MB 2020-01-13 04:45:31 7195 2424
Video 300MIUM-433 works M no. Case. 15 bedding manufactu...
1.09 GB 2019-05-11 20:04:14 4994 6891
x264 The.Outsider.2020.S01E02.WEBRip.x264-TBS[ettv]
189.99 MB 2020-01-13 05:45:29 4406 1864
Video It may interest some sites related exposure the ou...
283.36 MB 2019-09-13 10:07:49 1576 2520
Divx/Xvid The.Outsider.2019.HDRip.XviD.AC3-EVO
1.26 GB 2019-06-14 06:51:07 1539 1577
x264 The.Outsider.2020.S01E01.WEB.H264-XLF[ettv]
259.17 MB 2020-01-13 04:47:31 1426 321
Video Learning ability burst recommended bit people ...
246.58 MB 2019-05-25 09:13:28 1222 1248
Video FC2-PPV-1117289 1 year ago was a virgin until nea...
4.43 GB 2019-07-03 15:17:37 989 764
Video Feelings suffer dried He They outside of the coope...
288.18 MB 2019-09-13 12:15:17 973 664




Trackers:
udp://tracker.coppersurfer.tk:6969/announce

This Torrent also has backup trackers
URLSeedersLeechersCompleted
http://tracker.opentrackr.org:1337/announce000
http://tracker3.itzmx.com:6961/announce000

The Outsider (2020) S01E01 Fish in a Barrel 1080p AMZN Webrip x265 10bit EAC3 5.1 - Ainz
Files
The Outsider (2020) S01E01 Fish in a Barrel 1080p AMZN Webrip x265 10bit EAC3 5.1 - Ainz.mkv (1.23 GB)


Comments:
No comments still posted
Powered by TT | Page Generated In 2.117688 secs.
| RSS Feed | Feed Info