Warning! Use a VPN When Downloading Torrents!
Your IP Address is .   Location is
Your Internet Provider is tracking your torrent activity!  Hide your IP ADDRESS with a VPN!
We strongly recommend using ExpressVPN to anonymize your torrenting. 30 Day Money Back Guarantee!
Try it Now!
First Cams

Xvid/x264



Non-English

Site Friends
      ETTV

      Torrentz2

      Free Tutorials

      Free Courses Online

      Nulled Premium

      Aiosearch




It: Chapter Two - It - Capitolo 2 (2019).720p.H264.ita.eng.Ac3-5.1.sub.NUita.eng-MIRCrew


Download torrent:      
Info Hash:  c5c964e34b98def2e7a62f00c10f627742aaef47
Category:  Movies  > HD
Torrent language:  English  
Seeds | Leech:  254 | 112
Complete:   1,251
Health:   
Total Size:  3.29 GB
Added By:        robbyrs
Date Added:  02-12-2019 07:52:pm | Last Edit:  03-12-2019 05:30:pm

Un système d'onglets en javascript
Description Trackers Files 4 Comments 0 Download
It: Chapter Two - It - Capitolo 2 (2019).720p.H264.ita.eng.Ac3-5.1.sub.NUita.eng-MIRCrew


NO FOUND ONLY ORIGINAL RELEASE

My release is always in double track audio italian and Original audio
for select it use VLC or dvd player home
not use wmp

It - Capitolo 2 - It Chapter Two (2019)

Quality MIRCrew on HD 720p da 3,2 gb









Titolo originale It: Chapter Two
Lingua originale inglese
Paese di produzione Stati Uniti d'America
Anno 2019
Durata 169 min
Rapporto 2,39:1
Genere Horror, Thriller
Regia Andrés Muschietti
Soggetto dal romanzo di Stephen King
Sceneggiatura Gary Dauberman



   James McAvoy: William "Bill" Denbrough
   Jaeden Martell: William "Bill" Denbrough giovane
   Bill Skarsgård: Pennywise / It
   Jessica Chastain: Beverly "Bev" Marsh
   Sophia Lillis: Beverly "Bev" Marsh giovane
   Jay Ryan: Benjamin "Ben" Hanscom
   Jeremy Ray Taylor: Benjamin "Ben" Hanscom giovane
   Bill Hader: Richard "Richie" Tozier
   Finn Wolfhard: Richard "Richie" Tozier giovane
   Isaiah Mustafa: Michael "Mike" Hanlon
   Chosen Jacobs: Michael "Mike" Hanlon giovane
   James Ransone: Edward "Eddie" Kaspbrak
   Jack Dylan Grazer: Edward "Eddie" Kaspbrak giovane
   Andy Bean: Stanley "Stan" Uris
   Wyatt Oleff: Stanley "Stan" Uris giovane
   Jackson Robert Scott: George "Georgie" Denbrough
   Joan Gregson: sig.ra Kersh
   Javier Botet: lebbroso
   Teach Grant: Henry Bowers
   Nicholas Hamilton: Henry Bowers giovane
   Jess Weixler: Audra Phillips
   Will Beinbrink: Tom Rogan
   Xavier Dolan: Adrian Mellon
   Taylor Frey: Don Hagarty
   Jake Weary: John "Webby" Garton
   Stephen Bogaert: Alvin Marsh
   Molly Atkinson: Myra / Sonia Kaspbrak
   Ryan Kiera Armstrong: Victoria Fuller
   Luke Roessler: Dean
   Joe Bostick: sig. Keene
   Juno Rinaldi: Gretta
   Stephen King: negoziante



Derry, 2016. Alla fiera della città, Adrian Mellon, dopo essere stato pestato e buttato giù da un ponte da una gang di bulli per la sua omosessualità, viene brutalmente ucciso da un mostruoso clown davanti agli occhi del fidanzato, mentre un mare di palloncini rossi riempie il canale.



Twenty-seven years after their first encounter with the terrifying Pennywise, the Losers Club have grown up and moved away, until a devastating phone call brings them back.

 








General

Complete name                            : It - Capitolo 2 - It Chapter Two (2019).720p.h264.ita.eng.sub.NUita.eng-MIRCrew\It - Capitolo 2 - It Chapter Two (2019).720p.h264.ita.eng.sub.ita.eng-MIRCrew.mkv
Format                                   : Matroska
Format version                           : Version 2
File size                                : 3.29 GiB
Duration                                 : 2h 49mn
Overall bit rate                         : 2 781 Kbps
Movie name                               : robbyrs
Encoded date                             : UTC 2019-12-02T08:46:00Z
Writing application                      : mkvmerge v5.8.0 ('No Sleep / Pillow') built on Sep  2 2012 15:37:04
Writing library                          : Lavf55.12.0

Video
ID                                       : 1
Format                                   : AVC
Format/Info                              : Advanced Video Codec
Format profile                           : [email protected]
Format settings, CABAC                   : Yes
Format settings, ReFrames                : 4 frames
Codec ID                                 : V_MPEG4/ISO/AVC
Duration                                 : 2h 49mn
Bit rate                                 : 1 900 Kbps
Width                                    : 1 280 pixels
Height                                   : 528 pixels
Display aspect ratio                     : 2.40:1
Frame rate                               : 23.976 fps
Color space                              : YUV
Chroma subsampling                       : 4:2:0
Bit depth                                : 8 bits
Scan type                                : Progressive
Bits/(Pixel*Frame)                       : 0.117
Stream size                              : 2.17 GiB (66%)
Title                                    : robbyrs
Writing library                          : x264 core 142 r2479 dd79a61
Encoding settings                        : cabac=1 / ref=1 / deblock=1:0:0 / analyse=0x1:0x111 / me=hex / subme=2 / psy=1 / psy_rd=1.00:0.00 / mixed_ref=0 / me_range=16 / chroma_me=1 / trellis=0 / 8x8dct=0 / cqm=0 / deadzone=21,11 / fast_pskip=1 / chroma_qp_offset=0 / threads=9 / lookahead_threads=3 / sliced_threads=0 / nr=0 / decimate=1 / interlaced=0 / bluray_compat=0 / constrained_intra=0 / bframes=3 / b_pyramid=2 / b_adapt=1 / b_bias=0 / direct=1 / weightb=1 / open_gop=0 / weightp=1 / keyint=240 / keyint_min=24 / scenecut=40 / intra_refresh=0 / rc_lookahead=10 / rc=abr / mbtree=1 / bitrate=1900 / ratetol=1.0 / qcomp=0.60 / qpmin=0 / qpmax=69 / qpstep=4 / vbv_maxrate=50000 / vbv_bufsize=62500 / nal_hrd=none / filler=0 / ip_ratio=1.40 / aq=1:1.00
Language                                 : Italian
Default                                  : Yes
Forced                                   : No
Color primaries                          : BT.709-5, BT.1361, IEC 61966-2-4, SMPTE RP177
Transfer characteristics                 : BT.709-5, BT.1361
Matrix coefficients                      : BT.709-5, BT.1361, IEC 61966-2-4 709, SMPTE RP177

Audio #1
ID                                       : 2
Format                                   : AC-3
Format/Info                              : Audio Coding 3
Mode extension                           : CM (complete main)
Codec ID                                 : A_AC3
Duration                                 : 2h 49mn
Bit rate mode                            : Constant
Bit rate                                 : 448 Kbps
Channel(s)                               : 6 channels
Channel positions                        : Front: L C R, Side: L R, LFE
Sampling rate                            : 48.0 KHz
Bit depth                                : 16 bits
Compression mode                         : Lossy
Delay relative to video                  : -83ms
Stream size                              : 543 MiB (16%)
Title                                    : Ita Ac3 5.1
Language                                 : Italian
Default                                  : No
Forced                                   : No

Audio #2
ID                                       : 3
Format                                   : AC-3
Format/Info                              : Audio Coding 3
Mode extension                           : CM (complete main)
Codec ID                                 : A_AC3
Duration                                 : 2h 49mn
Bit rate mode                            : Constant
Bit rate                                 : 448 Kbps
Channel(s)                               : 6 channels
Channel positions                        : Front: L C R, Side: L R, LFE
Sampling rate                            : 48.0 KHz
Bit depth                                : 16 bits
Compression mode                         : Lossy
Delay relative to video                  : -5ms
Stream size                              : 543 MiB (16%)
Title                                    : Eng Ac3 5.1
Language                                 : English
Default                                  : No
Forced                                   : No

Menu
00:00:00.000                             : :Chapter 1
00:09:10.424                             : :Chapter 2
00:19:06.478                             : :Chapter 3
00:27:00.827                             : :Chapter 4
00:37:51.310                             : :Chapter 5
00:46:20.110                             : :Chapter 6
00:55:46.927                             : :Chapter 7
01:05:36.557                             : :Chapter 8
01:17:19.218                             : :Chapter 9
01:29:21.856                             : :Chapter 10
01:41:03.098                             : :Chapter 11
01:49:11.586                             : :Chapter 12
01:59:33.916                             : :Chapter 13
02:05:31.857                             : :Chapter 14
02:14:26.058                             : :Chapter 15
02:22:44.139                             : :Chapter 16
02:32:57.251                             : :Chapter 17
02:42:15.767                             : :Chapter 18
02:44:52.632                             : :Chapter 19









Similar Torrents
Type Name Size Added S L
Divx/Xvid To: Rozdział 2 - It: Chapter Two [2019] [HC] [HDR...
1.39 GB 2019-11-09 00:45:02 597 438
h.264/x264 It: Chapter Two - It - Capitolo 2 (2019).SD.H264.i...
2.30 GB 2019-12-02 22:02:42 321 197




Trackers:
udp://tracker.coppersurfer.tk:6969/announce

It: Chapter Two - It - Capitolo 2 (2019).720p.H264.ita.eng.Ac3-5.1.sub.NUita.eng-MIRCrew
Files
It - Capitolo 2 - It Chapter Two (2019).720p.h264.ita.eng.sub.ita.eng-MIRCrew.eng.srt (153.46 kB)
It - Capitolo 2 - It Chapter Two (2019).720p.h264.ita.eng.sub.ita.eng-MIRCrew.mkv (3.29 GB)
It - Capitolo 2 - It Chapter Two (2019).720p.h264.ita.eng.sub.ita.eng-MIRCrew.NUita.srt (179.30 kB)
It - Capitolo 2 - It Chapter Two (2019).720p.h264.ita.eng.sub.ita.eng-MIRCrew.srt (2.98 kB)


Comments:
No comments still posted
Powered by TT | Page Generated In 0.551273 secs.
| RSS Feed | Feed Info