Warning! Use a VPN When Downloading Torrents!
Your IP Address is .   Location is
Your Internet Provider is tracking your torrent activity!  Hide your IP ADDRESS with a VPN!
We strongly recommend using ExpressVPN to anonymize your torrenting. 30 Day Money Back Guarantee!
Try it Now!
First Cams

Xvid/x264



Non-English

Site Friends
      ETTV

      Torrentz2

      Free Tutorials

      Free Courses Online

      Nulled Premium

      Aiosearch




Watchmen (2019) S01E07 An Almost Religious Awe (1080p AMZN Webrip x265 10bit EAC3 5.1 - Goki).mkv


Download torrent:      
Info Hash:  21a82b2b5236c49edab3ada3e5e932f14937c29a
Category:  TV  > HEVC/x265
Torrent language:  English  
Seeds | Leech:  945 | 245
Complete:   5,317
Health:   
Total Size:  1.25 GB
Added By:        Goki
Date Added:  02-12-2019 04:12:pm | Last Edit:  03-12-2019 02:36:pm

IMDB
Watchmen
Watchmen Released 20 Oct 2019

Genre Action, Drama, Mystery, Sci-Fi

Director N/A

Writer Damon Lindelof

Actors Regina King, Tim Blake Nelson, Yahya Abdul-Mateen II, Andrew Howard

Plot Set in an alternate history where masked vigilantes are treated as outlaws, Watchmen embraces the nostalgia of the original groundbreaking graphic novel of the same name, while attempting to break new ground of its own.

Link http://www.imdb.com/title/tt7049682

Last Updated 07-12-2019 18:36:18
7.2

Votes 22,240

Un système d'onglets en javascript
Description Trackers Files 1 Comments 0 Download



Watchmen (2019) IMDB












Media Information

Unique ID                                : 138722373685954611817092076736385441211 (0x685CF5147C25F1814DCBE98F5C58DDBB)
Complete name                            : Watchmen (2019) S01E07 An Almost Religious Awe (1080p AMZN Webrip x265 10bit EAC3 5.1 - Goki).mkv
Format                                   : Matroska
Format version                           : Version 4
File size                                : 1.25 GiB
Duration                                 : 59 min 28 s
Overall bit rate                         : 3 020 kb/s
Movie name                               : Watchmen (2019) S01E07 An Almost Religious Awe (1080p AMZN Webrip x265 10bit EAC3 5.1 - Goki).mkv
Encoded date                             : UTC 2019-12-02 13:47:42
Writing application                      : mkvmerge v28.2.0 ('The Awakening') 64-bit
Writing library                          : libebml v1.3.6 + libmatroska v1.4.9

Video
ID                                       : 1
Format                                   : HEVC
Format/Info                              : High Efficiency Video Coding
Format profile                           : Main [email protected]@Main
Codec ID                                 : V_MPEGH/ISO/HEVC
Duration                                 : 59 min 28 s
Bit rate                                 : 2 378 kb/s
Width                                    : 1 920 pixels
Height                                   : 1 080 pixels
Display aspect ratio                     : 16:9
Frame rate mode                          : Constant
Frame rate                               : 23.976 (24000/1001) FPS
Color space                              : YUV
Chroma subsampling                       : 4:2:0
Bit depth                                : 10 bits
Bits/(Pixel*Frame)                       : 0.048
Stream size                              : 1 011 MiB (79%)
Writing library                          : x265 2.9+8-27d8424c799d:[Windows][MSVC 1915][64 bit] 10bit
Encoding settings                        : cpuid=1111039 / frame-threads=2 / numa-pools=6 / wpp / no-pmode / no-pme / no-psnr / no-ssim / log-level=2 / input-csp=1 / input-res=1920x1080 / interlace=0 / total-frames=0 / level-idc=0 / high-tier=1 / uhd-bd=0 / ref=4 / no-allow-non-conformance / no-repeat-headers / annexb / no-aud / no-hrd / info / hash=0 / no-temporal-layers / open-gop / min-keyint=23 / keyint=250 / gop-lookahead=0 / bframes=8 / b-adapt=2 / b-pyramid / bframe-bias=0 / rc-lookahead=100 / lookahead-slices=4 / scenecut=40 / radl=0 / no-intra-refresh / ctu=64 / min-cu-size=8 / no-rect / no-amp / max-tu-size=32 / tu-inter-depth=1 / tu-intra-depth=1 / limit-tu=0 / rdoq-level=2 / dynamic-rd=0.00 / no-ssim-rd / signhide / no-tskip / nr-intra=0 / nr-inter=0 / no-constrained-intra / no-strong-intra-smoothing / max-merge=3 / limit-refs=3 / limit-modes / me=3 / subme=5 / merange=57 / temporal-mvp / weightp / no-weightb / no-analyze-src-pics / deblock=0:0 / sao / no-sao-non-deblock / rd=4 / no-early-skip / rskip / no-fast-intra / no-tskip-fast / no-cu-lossless / no-b-intra / no-splitrd-skip / rdpenalty=0 / psy-rd=1.30 / psy-rdoq=2.00 / no-rd-refine / no-lossless / cbqpoffs=0 / crqpoffs=0 / rc=crf / crf=20.0 / qcomp=0.60 / qpstep=4 / stats-write=0 / stats-read=0 / ipratio=1.40 / pbratio=1.30 / aq-mode=2 / aq-strength=1.10 / cutree / zone-count=0 / no-strict-cbr / qg-size=32 / no-rc-grain / qpmax=69 / qpmin=0 / no-const-vbv / sar=1 / overscan=0 / videoformat=5 / range=0 / colorprim=2 / transfer=2 / colormatrix=2 / chromaloc=0 / display-window=0 / max-cll=0,0 / min-luma=0 / max-luma=1023 / log2-max-poc-lsb=8 / vui-timing-info / vui-hrd-info / slices=1 / no-opt-qp-pps / no-opt-ref-list-length-pps / no-multi-pass-opt-rps / scenecut-bias=0.05 / no-opt-cu-delta-qp / no-aq-motion / no-hdr / no-hdr-opt / no-dhdr10-opt / no-idr-recovery-sei / analysis-reuse-level=5 / scale-factor=0 / refine-intra=0 / refine-inter=0 / refine-mv=0 / no-limit-sao / ctu-info=0 / no-lowpass-dct / refine-mv-type=0 / copy-pic=1 / max-ausize-factor=1.0 / no-dynamic-refine / no-single-sei
Default                                  : Yes
Forced                                   : No

Audio
ID                                       : 2
Format                                   : E-AC-3
Format/Info                              : Enhanced AC-3
Commercial name                          : Dolby Digital Plus
Codec ID                                 : A_EAC3
Duration                                 : 59 min 28 s
Bit rate mode                            : Constant
Bit rate                                 : 640 kb/s
Channel(s)                               : 6 channels
Channel layout                           : L R C LFE Ls Rs
Sampling rate                            : 48.0 kHz
Frame rate                               : 31.250 FPS (1536 SPF)
Compression mode                         : Lossy
Stream size                              : 272 MiB (21%)
Language                                 : English
Service kind                             : Complete Main
Default                                  : Yes
Forced                                   : No

Text
ID                                       : 3
Format                                   : UTF-8
Codec ID                                 : S_TEXT/UTF8
Codec ID/Info                            : UTF-8 Plain Text
Duration                                 : 59 min 26 s
Bit rate                                 : 60 b/s
Count of elements                        : 910
Stream size                              : 26.3 KiB (0%)
Language                                 : English
Default                                  : No
Forced                                   : No

Source
1080p AMZN WEB-DL AMRAP
320133445867723758003249688941177207705 (0xF0D7757E613743B04CAD8087B221FB99)

.........................................................................................................................................



Similar Torrents
Type Name Size Added S L
x264 Watchmen.S01E03.WEB.h264-TBS[ettv]
221.50 MB 2019-11-04 04:23:45 17134 5440
x264 Watchmen.S01E02.REPACK.WEB.h264-TBS[ettv]
213.20 MB 2019-10-28 03:33:29 15706 3416
x264 Watchmen.S01E07.WEB.h264-TBS[ettv]
251.27 MB 2019-12-02 04:22:52 13512 7945
x264 Watchmen.S01E06.WEB.h264-CONVOY[ettv]
499.94 MB 2019-11-25 05:20:03 10544 6263
x264 Watchmen.S01E04.WEB.h264-TBS[ettv]
200.52 MB 2019-11-11 04:25:29 9699 2894
x264 Watchmen.S01E01.REPACK.WEB.h264-TBS[ettv]
278.99 MB 2019-10-21 03:53:34 6817 2056
x264 Watchmen.S01E05.WEB.h264-TBS[ettv]
223.87 MB 2019-11-18 04:22:35 6671 846
x264 Watchmen.S01E01.REAL.REPACK.WEB.h264-TBS[ettv]
272.19 MB 2019-10-21 10:18:55 2160 652
HEVC/x265 Watchmen (2019) S01E01 Its Summer and Were Running...
1.25 GB 2019-10-21 09:57:47 1233 529
HEVC/x265 Watchmen S01E03 She Was Killed by Space Junk 1080p...
1.13 GB 2019-11-04 17:54:55 1028 214




Trackers:
udp://tracker.coppersurfer.tk:6969/announce

This Torrent also has backup trackers
URLSeedersLeechersCompleted
http://tracker.opentrackr.org:1337/announce000
http://tracker3.itzmx.com:6961/announce000

Watchmen (2019) S01E07 An Almost Religious Awe (1080p AMZN Webrip x265 10bit EAC3 5.1 - Goki).mkv
Files
Watchmen (2019) S01E07 An Almost Religious Awe (1080p AMZN Webrip x265 10bit EAC3 5.1 - Goki).mkv (1.25 GB)


Comments:
No comments still posted
Powered by TT | Page Generated In 0.511799 secs.
| RSS Feed | Feed Info