Warning! Use a VPN When Downloading Torrents!
Your IP Address is .   Location is
Your Internet Provider is tracking your torrent activity!  Hide your IP ADDRESS with a VPN!
We strongly recommend using ExpressVPN to anonymize your torrenting. 30 Day Money Back Guarantee!
Try it Now!
First Cams

Xvid/x264



Non-English

Site Friends
      ETTV

      Torrentz2

      Free Tutorials

      Free Courses Online

      Nulled Premium

      Aiosearch




Watchmen S01E07 An Almost Religious Awe 1080p AMZN WEBrip x265 DDP5.1 D0ct0rLew[SEV]


Download torrent:      
Info Hash:  cfc6a333f1f1a8c4979c2c937119fa7413d785bc
Category:  TV  > HEVC/x265
Torrent language:  English  
Seeds | Leech:  692 | 103
Complete:   8,180
Health:   
Total Size:  1.81 GB
Added By:        SEV
Date Added:  02-12-2019 01:04:pm | Last Edit:  03-12-2019 10:05:am

IMDB
Watchmen
Watchmen Released 20 Oct 2019

Genre Action, Drama, Mystery, Sci-Fi

Director N/A

Writer Damon Lindelof

Actors Regina King, Tim Blake Nelson, Yahya Abdul-Mateen II, Andrew Howard

Plot Set in an alternate history where masked vigilantes are treated as outlaws, Watchmen embraces the nostalgia of the original groundbreaking graphic novel of the same name, while attempting to break new ground of its own.

Link https://www.imdb.com/title/tt7049682/?ref_=nv_sr_srsg_0

Last Updated 07-12-2019 20:06:48
7.2

Votes 22,240

Un système d'onglets en javascript
Description Trackers Files 2 Comments 0 Download




Media Information

Unique ID : 46041885551920698593247197599347168343 (0x22A358383BAE287C9A9659EB194ED457)
Complete name : Watchmen S01E07 An Almost Religious Awe 1080p AMZN WEBrip x265 DDP5.1 D0ct0rLew[SEV].mkv
Format : Matroska
Format version : Version 4
File size : 1.81 GiB
Duration : 1 h 0 min
Overall bit rate : 4 282 kb/s
Movie name : Watchmen S01E07 An Almost Religious Awe 1080p AMZN WEBrip x265 DDP5.1 D0ct0rLew[SEV]
Encoded date : UTC 2019-12-02 08:18:21
Writing application : mkvmerge v40.0.0 ('Old Town Road + Pony') 64-bit
Writing library : libebml v1.3.9 + libmatroska v1.5.2

Video
ID : 1
Format : HEVC
Format/Info : High Efficiency Video Coding
Format profile : Main [email protected]@Main
Codec ID : V_MPEGH/ISO/HEVC
Duration : 1 h 0 min
Bit rate : 3 640 kb/s
Width : 1 920 pixels
Height : 1 080 pixels
Display aspect ratio : 16:9
Frame rate mode : Constant
Frame rate : 23.976 (24000/1001) FPS
Color space : YUV
Chroma subsampling : 4:2:0
Bit depth : 10 bits
Bits/(Pixel*Frame) : 0.073
Stream size : 1.54 GiB (85%)
Writing library : x265 3.2+9-971180b100f8:[Windows][MSVC 1923][64 bit] 10bit
Encoding settings : cpuid=1111039 / frame-threads=4 / numa-pools=24 / wpp / no-pmode / no-pme / no-psnr / no-ssim / log-level=2 / input-csp=1 / input-res=1920x1080 / interlace=0 / total-frames=86860 / level-idc=0 / high-tier=1 / uhd-bd=0 / ref=4 / no-allow-non-conformance / no-repeat-headers / annexb / no-aud / no-hrd / info / hash=0 / no-temporal-layers / open-gop / min-keyint=23 / keyint=250 / gop-lookahead=0 / bframes=16 / b-adapt=2 / b-pyramid / bframe-bias=0 / rc-lookahead=90 / lookahead-slices=4 / scenecut=40 / radl=0 / no-splice / no-intra-refresh / ctu=64 / min-cu-size=8 / no-rect / no-amp / max-tu-size=32 / tu-inter-depth=4 / tu-intra-depth=4 / limit-tu=0 / rdoq-level=2 / dynamic-rd=0.00 / no-ssim-rd / signhide / no-tskip / nr-intra=0 / nr-inter=0 / no-constrained-intra / no-strong-intra-smoothing / max-merge=3 / limit-refs=3 / limit-modes / me=3 / subme=7 / merange=92 / temporal-mvp / no-frame-dup / no-hme / weightp / no-weightb / no-analyze-src-pics / deblock=0:0 / sao / no-sao-non-deblock / rd=4 / selective-sao=4 / no-early-skip / rskip / no-fast-intra / no-tskip-fast / no-cu-lossless / no-b-intra / no-splitrd-skip / rdpenalty=0 / psy-rd=1.20 / psy-rdoq=1.00 / no-rd-refine / no-lossless / cbqpoffs=0 / crqpoffs=0 / rc=crf / crf=20.0 / qcomp=0.60 / qpstep=4 / stats-write=0 / stats-read=0 / ipratio=1.40 / pbratio=1.30 / aq-mode=3 / aq-strength=1.24 / cutree / zone-count=0 / no-strict-cbr / qg-size=32 / no-rc-grain / qpmax=69 / qpmin=0 / no-const-vbv / sar=0 / overscan=0 / videoformat=5 / range=0 / colorprim=2 / transfer=2 / colormatrix=2 / chromaloc=0 / display-window=0 / cll=0,0 / min-luma=0 / max-luma=1023 / log2-max-poc-lsb=8 / vui-timing-info / vui-hrd-info / slices=1 / no-opt-qp-pps / no-opt-ref-list-length-pps / no-multi-pass-opt-rps / scenecut-bias=0.05 / no-opt-cu-delta-qp / no-aq-motion / no-hdr / no-hdr-opt / no-dhdr10-opt / no-idr-recovery-sei / analysis-reuse-level=5 / scale-factor=0 / refine-intra=0 / refine-inter=0 / refine-mv=1 / refine-ctu-distortion=0 / no-limit-sao / ctu-info=0 / no-lowpass-dct / refine-analysis-type=0 / copy-pic=1 / max-ausize-factor=1.0 / no-dynamic-refine / no-single-sei / no-hevc-aq / no-svt / no-field / qp-adaptation-range=1.00
Language : English
Default : Yes
Forced : No

Audio
ID : 2
Format : E-AC-3
Format/Info : Enhanced AC-3
Commercial name : Dolby Digital Plus
Codec ID : A_EAC3
Duration : 1 h 0 min
Bit rate mode : Constant
Bit rate : 640 kb/s
Channel(s) : 6 channels
Channel layout : L R C LFE Ls Rs
Sampling rate : 48.0 kHz
Frame rate : 31.250 FPS (1536 SPF)
Compression mode : Lossy
Delay relative to video : 16 ms
Stream size : 276 MiB (15%)
Language : English
Service kind : Complete Main
Default : Yes
Forced : No

Text
ID : 3
Format : UTF-8
Codec ID : S_TEXT/UTF8
Codec ID/Info : UTF-8 Plain Text
Duration : 1 h 0 min
Bit rate : 61 b/s
Count of elements : 925
Stream size : 26.9 KiB (0%)
Language : English
Default : Yes
Forced : No

We have no issue with individuals posting or re-uploading our torrents on a platform we aren't on. However, if this is something you'd like to do, please do so in a 'as-is' format. We ask that you do not create a new torrent, include all descriptions you see above including the SEV logo, tags, notes and screenshots.
If you'd like to become a permanent poster on a website we don't post to, feel free to get in contact with a Sublime Encoded Video member.

We are recruiting/training new members for SEV & seedbox providers as well as people to help out with subtitles.
As you already know, we deliver quality, so you know the standard.
If you're interested, feel free to contact any of the team members.


Similar Torrents
Type Name Size Added S L
x264 Watchmen.S01E03.WEB.h264-TBS[ettv]
221.50 MB 2019-11-04 04:23:45 17134 5440
x264 Watchmen.S01E02.REPACK.WEB.h264-TBS[ettv]
213.20 MB 2019-10-28 03:33:29 15706 3416
x264 Watchmen.S01E07.WEB.h264-TBS[ettv]
251.27 MB 2019-12-02 04:22:52 13512 7945
x264 Watchmen.S01E06.WEB.h264-CONVOY[ettv]
499.94 MB 2019-11-25 05:20:03 10544 6263
x264 Watchmen.S01E04.WEB.h264-TBS[ettv]
200.52 MB 2019-11-11 04:25:29 9699 2894
x264 Watchmen.S01E01.REPACK.WEB.h264-TBS[ettv]
278.99 MB 2019-10-21 03:53:34 6817 2056
x264 Watchmen.S01E05.WEB.h264-TBS[ettv]
223.87 MB 2019-11-18 04:22:35 6671 846
x264 Watchmen.S01E01.REAL.REPACK.WEB.h264-TBS[ettv]
272.19 MB 2019-10-21 10:18:55 2160 652
HEVC/x265 Watchmen (2019) S01E01 Its Summer and Were Running...
1.25 GB 2019-10-21 09:57:47 1233 529
HEVC/x265 Watchmen S01E03 She Was Killed by Space Junk 1080p...
1.13 GB 2019-11-04 17:54:55 1028 214




Trackers:
http://tracker3.itzmx.com:6961/announce

This Torrent also has backup trackers
URLSeedersLeechersCompleted
http://tracker3.itzmx.com:6961/announce000
http://tracker.opentrackr.org:1337/announce000
http://open.acgnxtracker.com:80/announce000
http://explodie.org:6969/announce000
https://opentracker.xyz:443/announce000
https://1337.abcvg.info:443/announce000

Watchmen S01E07 An Almost Religious Awe 1080p AMZN WEBrip x265 DDP5.1 D0ct0rLew[SEV]
Files
Contact SEV.txt (1.01 kB)
Watchmen S01E07 An Almost Religious Awe 1080p AMZN WEBrip x265 DDP5.1 D0ct0rLew[SEV].mkv (1.81 GB)


Comments:
No comments still posted
Powered by TT | Page Generated In 0.541003 secs.
| RSS Feed | Feed Info