Warning! Use a VPN When Downloading Torrents!
Your IP Address is .   Location is
Your Internet Provider is tracking your torrent activity!  Hide your IP ADDRESS with a VPN!
We strongly recommend using Trust.Zone VPN to anonymize your torrenting.
Use special promo code "XMAS" and save up to 72% or Try 3 days for free!
Try it Now!
First Cams

Xvid/x264



Non-English

Site Friends
      ETTV

      Torrentz2

      Free Tutorials

      Free Courses Online

      Nulled Premium

      Aiosearch




Master Z The Ip Man Legacy 2018 x264 720p Esub BluRay Dual Audio Hindi Chinese GOPISAHI


Download torrent:      
Info Hash:  0ff75add9f11291d98263d2f63a94c5f30bab5eb
Category:  Movies  > Dubs/Dual Audio
Torrent language:  Hindi  
Seeds | Leech:  692 | 239
Complete:   2,045
Health:   
Total Size:  839.74 MB
Added By:        GOPISAHI
Date Added:  02-12-2019 07:58:am | Last Edit:  03-12-2019 12:14:am

Un système d'onglets en javascript
Description Trackers Files 1 Comments 0 Download
https://www.gopisahi.in/



Master Z The Ip Man Legacy 2018 x264 720p Esub BluRay Dual Audio Hindi Chinese GOPISAHI

Format                         : Matroska
Format version                 : Version 4
File size                      : 840 MiB
Duration                       : 1 h 47 min
Overall bit rate               : 1 091 kb/s
Movie name                     : Master Z The Ip Man Legacy 2018 GOPISAHI

Video
Format                         : AVC
Format/Info                    : Advanced Video Codec
Format profile                 : [email protected]
Format settings                : CABAC / 11 Ref Frames
Format settings, CABAC         : Yes
Format settings, Reference fra : 11 frames
Codec ID                       : V_MPEG4/ISO/AVC
Duration                       : 1 h 47 min
Bit rate                       : 899 kb/s
Width                          : 1 280 pixels
Height                         : 566 pixels
Display aspect ratio           : 2.25:1
Frame rate mode                : Constant
Frame rate                     : 24.000 FPS
Color space                    : YUV
Chroma subsampling             : 4:2:0
Bit depth                      : 8 bits
Scan type                      : Progressive
Bits/(Pixel*Frame)             : 0.052
Stream size                    : 689 MiB (82%)
Title                          : GOPISAHI
Writing library                : x264 core 157 r2935 545de2f

Audio #1
Format                         : AAC LC
Duration                       : 1 h 47 min
Bit rate                       : 96.0 kb/s
Channel(s)                     : 2 channels
Channel layout                 : L R
Sampling rate                  : 48.0 kHz
Frame rate                     : 46.875 FPS (1024 SPF)
Compression mode               : Lossy
Delay relative to video        : -64 ms
Stream size                    : 74.3 MiB (9%)
Title                          : GOPISAHI
Language                       : Hindi

Audio #2
Format                         : AAC LC
Duration                       : 1 h 47 min
Bit rate                       : 96.0 kb/s
Channel(s)                     : 2 channels
Channel layout                 : L R
Sampling rate                  : 48.0 kHz
Frame rate                     : 46.875 FPS (1024 SPF)
Compression mode               : Lossy
Delay relative to video        : -64 ms
Stream size                    : 74.3 MiB (9%)
Title                          : GOPISAHI
Language                       : Chinese

Text #1
Language                       : English

Text #2
Language                       : Hindi







Similar Torrents
Type Name Size Added S L
HD Master Z Ip Man Legacy / Ye wen wai zhuan Zhang ti...
1.72 GB 2019-03-30 18:06:11 2707 3954
Video The. mism-123 Amateur master zone FILE slave No. 1...
1.25 GB 2019-03-25 10:56:11 864 230
HEVC/x265 Master Z Ip Man Legacy 2018 DUBBED 720p BluRay HEV...
666.41 MB 2019-07-15 00:11:14 681 574
HEVC/x265 Master Z Ip Man Legacy 2018 DUBBED 1080p BluRay DD...
1.32 GB 2019-07-15 00:14:31 669 794
Divx/Xvid Master.Z.Ip.Man.Legacy.2018.V2.HC.HDRip.XviD.AC3-E...
1.41 GB 2019-03-12 14:23:42 619 260
HD Master.Z.Ip.Man.Legacy.2018.1080p.HC.HDRip.X264.AC...
2.75 GB 2019-03-12 13:51:01 605 816
Divx/Xvid Master.Z.Ip.Man.Legacy.2018.HC.HDRip.XviD.AC3-EVO
1.43 GB 2019-03-12 09:38:14 541 365
h.264/x264 Master.Z.Ip.Man.Legacy.2018.V2.HC.HDRip.XviD.AC3-E...
1.41 GB 2019-03-12 14:01:02 132 154




Trackers:
udp://tracker.leechers-paradise.org:6969/announce

Master Z The Ip Man Legacy 2018 x264 720p Esub BluRay Dual Audio Hindi Chinese GOPISAHI
Files
Master Z The Ip Man Legacy 2018 x264 720p Esub BluRay Dual Audio Hindi Chinese GOPISAHI.mkv (839.74 MB)


Comments:
No comments still posted
Powered by TT | Page Generated In 0.234547 secs.
| RSS Feed | Feed Info