Warning! Use a VPN When Downloading Torrents!
Your IP Address is .   Location is
Your Internet Provider is tracking your torrent activity!  Hide your IP ADDRESS with a VPN!
We strongly recommend using Trust.Zone VPN to anonymize your torrenting.
Use special promo code "XMAS" and save up to 72% or Try 3 days for free!
Try it Now!
First Cams

Xvid/x264



Non-English

Site Friends
      ETTV

      Torrentz2

      Free Tutorials

      Free Courses Online

      Nulled Premium

      Aiosearch




His Dark Materials (2019) S01E05 The Lost Boy (1080p AMZN Webrip x265 10bit EAC3 5.1 - Goki).mkv


Download torrent:      
Info Hash:  acab431d07321886f92b257360459a2a843e13c2
Category:  TV  > HEVC/x265
Torrent language:  English  
Seeds | Leech:  1,242 | 614
Complete:   4,477
Health:   
Total Size:  1.68 GB
Added By:        Goki
Date Added:  02-12-2019 07:28:am | Last Edit:  02-12-2019 11:20:pm

IMDB
His Dark Materials
His Dark Materials Released 04 Nov 2019

Genre Adventure, Drama, Family, Fantasy

Director N/A

Writer N/A

Actors Dafne Keen, Kit Connor, Archie Barnes, Leanne Holder

Plot Two children embark on a magical adventure through parallel universes.

Link http://www.imdb.com/title/tt5607976

Last Updated 13-12-2019 04:32:12
8.3

Votes 8,604

Un système d'onglets en javascript
Description Trackers Files 1 Comments 0 Download



His Dark Materials (2019) IMDB












Media Information

Unique ID                                : 46566026315172416475540400646008550209 (0x23084A5ABE98B9C15EA2C5C7BC473341)
Complete name                            : His Dark Materials (2019) S01E05 The Lost Boy (1080p AMZN Webrip x265 10bit EAC3 5.1 - Goki).mkv
Format                                   : Matroska
Format version                           : Version 4
File size                                : 1.68 GiB
Duration                                 : 55 min 40 s
Overall bit rate                         : 4 311 kb/s
Movie name                               : His Dark Materials (2019) S01E05 The Lost Boy (1080p AMZN Webrip x265 10bit EAC3 5.1 - Goki).mkv
Encoded date                             : UTC 2019-12-02 05:04:10
Writing application                      : mkvmerge v28.2.0 ('The Awakening') 64-bit
Writing library                          : libebml v1.3.6 + libmatroska v1.4.9

Video
ID                                       : 1
Format                                   : HEVC
Format/Info                              : High Efficiency Video Coding
Format profile                           : Main [email protected]@Main
Codec ID                                 : V_MPEGH/ISO/HEVC
Duration                                 : 55 min 40 s
Bit rate                                 : 3 669 kb/s
Width                                    : 1 920 pixels
Height                                   : 1 080 pixels
Display aspect ratio                     : 16:9
Frame rate mode                          : Constant
Frame rate                               : 25.000 FPS
Color space                              : YUV
Chroma subsampling                       : 4:2:0
Bit depth                                : 10 bits
Bits/(Pixel*Frame)                       : 0.071
Stream size                              : 1.43 GiB (85%)
Writing library                          : x265 2.9+8-27d8424c799d:[Windows][MSVC 1915][64 bit] 10bit
Encoding settings                        : cpuid=1111039 / frame-threads=2 / numa-pools=6 / wpp / no-pmode / no-pme / no-psnr / no-ssim / log-level=2 / input-csp=1 / input-res=1920x1080 / interlace=0 / total-frames=0 / level-idc=0 / high-tier=1 / uhd-bd=0 / ref=4 / no-allow-non-conformance / no-repeat-headers / annexb / no-aud / no-hrd / info / hash=0 / no-temporal-layers / open-gop / min-keyint=25 / keyint=250 / gop-lookahead=0 / bframes=8 / b-adapt=2 / b-pyramid / bframe-bias=0 / rc-lookahead=100 / lookahead-slices=4 / scenecut=40 / radl=0 / no-intra-refresh / ctu=64 / min-cu-size=8 / no-rect / no-amp / max-tu-size=32 / tu-inter-depth=1 / tu-intra-depth=1 / limit-tu=0 / rdoq-level=2 / dynamic-rd=0.00 / no-ssim-rd / signhide / no-tskip / nr-intra=0 / nr-inter=0 / no-constrained-intra / no-strong-intra-smoothing / max-merge=3 / limit-refs=3 / limit-modes / me=3 / subme=5 / merange=57 / temporal-mvp / weightp / no-weightb / no-analyze-src-pics / deblock=0:0 / sao / no-sao-non-deblock / rd=4 / no-early-skip / rskip / no-fast-intra / no-tskip-fast / no-cu-lossless / no-b-intra / no-splitrd-skip / rdpenalty=0 / psy-rd=1.30 / psy-rdoq=2.00 / no-rd-refine / no-lossless / cbqpoffs=0 / crqpoffs=0 / rc=crf / crf=22.0 / qcomp=0.60 / qpstep=4 / stats-write=0 / stats-read=0 / ipratio=1.40 / pbratio=1.30 / aq-mode=2 / aq-strength=1.10 / cutree / zone-count=0 / no-strict-cbr / qg-size=32 / no-rc-grain / qpmax=69 / qpmin=0 / no-const-vbv / sar=1 / overscan=0 / videoformat=5 / range=0 / colorprim=2 / transfer=2 / colormatrix=2 / chromaloc=0 / display-window=0 / max-cll=0,0 / min-luma=0 / max-luma=1023 / log2-max-poc-lsb=8 / vui-timing-info / vui-hrd-info / slices=1 / no-opt-qp-pps / no-opt-ref-list-length-pps / no-multi-pass-opt-rps / scenecut-bias=0.05 / no-opt-cu-delta-qp / no-aq-motion / no-hdr / no-hdr-opt / no-dhdr10-opt / no-idr-recovery-sei / analysis-reuse-level=5 / scale-factor=0 / refine-intra=0 / refine-inter=0 / refine-mv=0 / no-limit-sao / ctu-info=0 / no-lowpass-dct / refine-mv-type=0 / copy-pic=1 / max-ausize-factor=1.0 / no-dynamic-refine / no-single-sei
Default                                  : Yes
Forced                                   : No

Audio
ID                                       : 2
Format                                   : E-AC-3
Format/Info                              : Enhanced AC-3
Commercial name                          : Dolby Digital Plus
Codec ID                                 : A_EAC3
Duration                                 : 55 min 40 s
Bit rate mode                            : Constant
Bit rate                                 : 640 kb/s
Channel(s)                               : 6 channels
Channel layout                           : L R C LFE Ls Rs
Sampling rate                            : 48.0 kHz
Frame rate                               : 31.250 FPS (1536 SPF)
Compression mode                         : Lossy
Stream size                              : 255 MiB (15%)
Language                                 : English
Service kind                             : Complete Main
Default                                  : Yes
Forced                                   : No

Text
ID                                       : 3
Format                                   : UTF-8
Codec ID                                 : S_TEXT/UTF8
Codec ID/Info                            : UTF-8 Plain Text
Duration                                 : 53 min 49 s
Bit rate                                 : 44 b/s
Count of elements                        : 621
Stream size                              : 17.5 KiB (0%)
Language                                 : English
Default                                  : No
Forced                                   : No

Source
1080p AMZN WEB-DL NTb
281024278455326915867800664618238783183 (0xD36B4EAB0FC5EFAC6308C5A1E5E4AECF)

.........................................................................................................................................



Similar Torrents
Type Name Size Added S L
x264 His.Dark.Materials.S01E03.HDTV.x264-MTB[ettv]
343.16 MB 2019-11-17 23:47:34 8508 2771
x264 His.Dark.Materials.S01E05.HDTV.x264-BRISK[ettv]
311.43 MB 2019-12-01 23:57:52 5798 2120
x264 His.Dark.Materials.S01E01.HDTV.x264-MTB[ettv]
361.28 MB 2019-11-04 00:43:30 2628 712
x264 His.Dark.Materials.S01E04.REPACK.HDTV.x264-BRISK[e...
360.69 MB 2019-11-25 03:59:54 2625 822
x264 His.Dark.Materials.S01E02.PROPER.HDTV.x264-MTB[ett...
333.58 MB 2019-11-11 03:43:21 1619 425
HEVC/x265 His Dark Materials (2019) S01E01 Lyras Jordan (108...
2.41 GB 2019-11-04 13:29:39 1047 455
HEVC/x265 His Dark Materials (2019) S01E06 The Daemon-Cages ...
1.33 GB 2019-12-09 08:11:00 882 207
x264 His.Dark.Materials.S01E06.HDTV.x264-MTB[ettv]
320.57 MB 2019-12-09 00:04:00 836 126
HEVC/x265 His Dark Materials (2019) S01E02 The Idea of North...
2.81 GB 2019-11-11 10:18:22 783 240
x264 His.Dark.Materials.S01E05.PROPER.HDTV.x264-RiVER[e...
398.44 MB 2019-12-02 03:35:14 718 101




Trackers:
udp://tracker.coppersurfer.tk:6969/announce

This Torrent also has backup trackers
URLSeedersLeechersCompleted
http://tracker.opentrackr.org:1337/announce000
http://tracker3.itzmx.com:6961/announce000

His Dark Materials (2019) S01E05 The Lost Boy (1080p AMZN Webrip x265 10bit EAC3 5.1 - Goki).mkv
Files
His Dark Materials (2019) S01E05 The Lost Boy (1080p AMZN Webrip x265 10bit EAC3 5.1 - Goki).mkv (1.68 GB)


Comments:
No comments still posted
Powered by TT | Page Generated In 0.771453 secs.
| RSS Feed | Feed Info