Xvid/x264



Non-English

Site Friends
      ETTV

      Torrentz2

      Free Courses Online

      OneHack




Peter Pan The Quest for the Never Book 2018 DVDRip x264 [MW]


Download torrent:      
Info Hash:  D57262CD3B919144F4F548F22823106C6BFDA958
Category:  Movies > h.264/x264
Torrent language:  English  
Seeds | Leech:  353 | 211
Complete:   1,246
Health:   
Total Size:  749.34 MB
Added By:        MovieFreak
Date Added:  06-04-2019 02:05:pm | Last Edit:  06-04-2019 11:52:pm
Un système d'onglets en javascript
Description Trackers Files 1 Comments 0 Download Update Seeds & Leechers Stat




General
Format                                   : Matroska
Format version                           : Version 4
File size                                : 749 MiB
Duration                                 : 1 h 25 min
Overall bit rate                         : 1 231 kb/s

Video
ID                                       : 1
Format                                   : AVC
Format/Info                              : Advanced Video Codec
Format profile                           : [email protected]
Format settings                          : CABAC / 4 Ref Frames
Format settings, CABAC                   : Yes
Format settings, RefFrames               : 4 frames
Codec ID                                 : V_MPEG4/ISO/AVC
Duration                                 : 1 h 25 min
Bit rate                                 : 1 100 kb/s
Width                                    : 720 pixels
Height                                   : 404 pixels
Display aspect ratio                     : 16:9
Frame rate mode                          : Constant
Frame rate                               : 25.000 FPS
Color space                              : YUV
Chroma subsampling                       : 4:2:0
Bit depth                                : 8 bits
Scan type                                : Progressive
Bits/(Pixel*Frame)                       : 0.151
Stream size                              : 670 MiB (89%)
Writing library                          : x264 core 157 r2935 545de2f

Audio
ID                                       : 2
Format                                   : AAC LC
Codec ID                                 : A_AAC-2
Duration                                 : 1 h 25 min
Bit rate                                 : 128 kb/s
Channel(s)                               : 2 channels
Channel layout                           : L R
Sampling rate                            : 48.0 kHz
Frame rate                               : 46.875 FPS (1024 SPF)
Compression mode                         : Lossy
Stream size                              : 78.1 MiB (10%)
Language                                 : English
Default                                  : Yes
Forced                                   : No


Click To View Image

https://pichub.site/image/wU5k8
https://pichub.site/image/wUXDh
https://pichub.site/image/wU6H5
https://pichub.site/image/wUngj
https://pichub.site/image/wUsnr
https://pichub.site/image/wUZYk



Similar Torrents
Type Name Size Added S L
Divx/Xvid Peter.Pan.The.Quest.for.the.Never.Book.2018.HDRip....
1.17 GB 2018-11-14 20:11:26 6701 2144
h.264/x264 Peter.Pan.The.Quest.for.the.Never.Book.2018.DVDRip...
981.90 MB 2019-04-04 15:29:39 733 642
HD Peter.Pan.The.Quest.for.the.Never.Book.2018.1080p....
3.40 GB 2018-11-14 20:08:42 436 229
h.264/x264 Peter.Pan.The.Quest.for.the.Never.Book.2018.HDRip....
1.17 GB 2018-11-14 20:10:16 341 90
HD Peter.Pan.The.Quest.for.the.Never.Book.2018.1080p....
1,019.73 MB 2018-11-15 15:06:19 187 66
Audio Peter Paul And Mary - The Very Best Of Peter Paul ...
182.70 MB 2020-03-29 19:17:19 136 38
Ebooks Peter Pan: The Complete Adventures (Illustrated Pe...
2.81 MB 2019-07-27 16:46:17 120 7
Audio Peter Paul And Mary - The Very Best Of Peter Paul ...
447.83 MB 2020-03-29 16:48:35 87 36
Ebooks Majestic - Peter Parkin-Alison Darby [EN EPUB] [eb...
617.48 kB 2019-07-11 16:45:50 63 0
HD Aventurile lui Peter Pan (Dublat in Romana) - DVDR...
2.87 GB 2020-01-05 20:44:44 14 0




Trackers:
udp://tracker.coppersurfer.tk:6969/announce

Peter Pan The Quest for the Never Book 2018 DVDRip x264 [MW]
Files
Peter Pan The Quest for the Never Book 2018 DVDRip x264 [MW].mkv (749.34 MB)


Comments:
No comments still posted

Powered by TT | Page Generated In 4.340533 secs.
| RSS Feed | Feed Info